The text below is selected, press Ctrl+C to copy to your clipboard. (⌘+C on Mac) No line numbers will be copied.
Lost Bullet 2 (2022) 720p...

13th November 2022 08:38:52 AM | Views: 13
  1. Format                                   : Matroska
  2. Format version                           : Version 4
  3. File size                                : 1.04 GiB
  4. Duration                                 : 1 h 40 min
  5. Overall bit rate                         : 1 483 kb/s
  6. Movie name                               : Lost Bullet 2 (2022) 720p NF WEB-DL x264 Dual Audio [Hindi DD5.1 + English DD5.1] ESub 1.03GB [MoviezAddiction.life]
  7. Encoded date                             : UTC 2022-11-13 05:55:36
  8. Writing application                      : mkvmerge v71.1.0 ('Fortitude') 64-bit
  9. Writing library                          : libebml v1.4.4 + libmatroska v1.7.1
  10.  
  11. Video
  12. ID                                       : 1
  13. Format                                   : AVC
  14. Format/Info                              : Advanced Video Codec
  15. Format profile                           : [email protected]
  16. Format settings                          : CABAC / 4 Ref Frames
  17. Format settings, CABAC                   : Yes
  18. Format settings, Reference frames        : 4 frames
  19. Codec ID                                 : V_MPEG4/ISO/AVC
  20. Duration                                 : 1 h 40 min
  21. Bit rate                                 : 1 099 kb/s
  22. Width                                    : 1 280 pixels
  23. Height                                   : 534 pixels
  24. Display aspect ratio                     : 2.40:1
  25. Original display aspect ratio            : 2.40:1
  26. Frame rate mode                          : Constant
  27. Frame rate                               : 25.000 FPS
  28. Color space                              : YUV
  29. Chroma subsampling                       : 4:2:0
  30. Bit depth                                : 8 bits
  31. Scan type                                : Progressive
  32. Bits/(Pixel*Frame)                       : 0.064
  33. Stream size                              : 787 MiB (74%)
  34. Default                                  : Yes
  35. Forced                                   : No
  36.  
  37. Audio #1
  38. ID                                       : 2
  39. Format                                   : AAC LC SBR
  40. Format/Info                              : Advanced Audio Codec Low Complexity with Spectral Band Replication
  41. Commercial name                          : HE-AAC
  42. Format settings                          : Explicit
  43. Codec ID                                 : A_AAC-2
  44. Duration                                 : 1 h 40 min
  45. Bit rate                                 : 192 kb/s
  46. Channel(s)                               : 6 channels
  47. Channel layout                           : C L R Ls Rs LFE
  48. Sampling rate                            : 48.0 kHz
  49. Frame rate                               : 23.438 FPS (2048 SPF)
  50. Compression mode                         : Lossy
  51. Stream size                              : 137 MiB (13%)
  52. Title                                    : Hindi
  53. Language                                 : Hindi
  54. Default                                  : Yes
  55. Forced                                   : No
  56.  
  57. Audio #2
  58. ID                                       : 3
  59. Format                                   : AAC LC SBR
  60. Format/Info                              : Advanced Audio Codec Low Complexity with Spectral Band Replication
  61. Commercial name                          : HE-AAC
  62. Format settings                          : Explicit
  63. Codec ID                                 : A_AAC-2
  64. Duration                                 : 1 h 40 min
  65. Bit rate                                 : 192 kb/s
  66. Channel(s)                               : 6 channels
  67. Channel layout                           : C L R Ls Rs LFE
  68. Sampling rate                            : 48.0 kHz
  69. Frame rate                               : 23.438 FPS (2048 SPF)
  70. Compression mode                         : Lossy
  71. Stream size                              : 137 MiB (13%)
  72. Title                                    : English
  73. Language                                 : English
  74. Default                                  : No
  75. Forced                                   : No
  76.  
  77. Text
  78. ID                                       : 4
  79. Format                                   : UTF-8
  80. Codec ID                                 : S_TEXT/UTF8
  81. Codec ID/Info                            : UTF-8 Plain Text
  82. Duration                                 : 1 h 37 min
  83. Bit rate                                 : 21 b/s
  84. Frame rate                               : 0.093 FPS
  85. Count of elements                        : 545
  86. Stream size                              : 15.5 KiB (0%)
  87. Title                                    : English [SRT]
  88. Language                                 : English
  89. Default                                  : Yes
  90. Forced                                   : No