The text below is selected, press Ctrl+C to copy to your clipboard. (⌘+C on Mac) No line numbers will be copied.
Mirage (2018) 720p BluRay x264...

17th January 2023 02:52:59 AM | Views: 9
  1. Format                                   : Matroska
  2. Format version                           : Version 4
  3. File size                                : 1.18 GiB
  4. Duration                                 : 2 h 8 min
  5. Overall bit rate                         : 1 314 kb/s
  6. Movie name                               : Mirage (2018) 720p BluRay x264 Hindi DD5.1 ESub 1.18GB [MoviezAddiction]
  7. Encoded date                             : UTC 2023-01-17 01:40:50
  8. Writing application                      : mkvmerge v72.0.0 ('Minuano (Six-eight)') 64-bit
  9. Writing library                          : libebml v1.4.4 + libmatroska v1.7.1
  10.  
  11. Video
  12. ID                                       : 1
  13. Format                                   : AVC
  14. Format/Info                              : Advanced Video Codec
  15. Format profile                           : [email protected]
  16. Format settings                          : CABAC / 4 Ref Frames
  17. Format settings, CABAC                   : Yes
  18. Format settings, Reference frames        : 4 frames
  19. Codec ID                                 : V_MPEG4/ISO/AVC
  20. Duration                                 : 2 h 8 min
  21. Bit rate                                 : 1 099 kb/s
  22. Width                                    : 1 280 pixels
  23. Height                                   : 536 pixels
  24. Display aspect ratio                     : 2.40:1
  25. Frame rate mode                          : Variable
  26. Frame rate                               : 23.976 (24000/1001) FPS
  27. Color space                              : YUV
  28. Chroma subsampling                       : 4:2:0
  29. Bit depth                                : 8 bits
  30. Scan type                                : Progressive
  31. Bits/(Pixel*Frame)                       : 0.067
  32. Stream size                              : 1 011 MiB (83%)
  33. Default                                  : Yes
  34. Forced                                   : No
  35. Color range                              : Limited
  36. Color primaries                          : BT.709
  37. Transfer characteristics                 : BT.709
  38. Matrix coefficients                      : BT.709
  39.  
  40. Audio
  41. ID                                       : 2
  42. Format                                   : AAC LC SBR
  43. Format/Info                              : Advanced Audio Codec Low Complexity with Spectral Band Replication
  44. Commercial name                          : HE-AAC
  45. Format settings                          : Explicit
  46. Codec ID                                 : A_AAC-2
  47. Duration                                 : 2 h 8 min
  48. Bit rate                                 : 192 kb/s
  49. Channel(s)                               : 6 channels
  50. Channel layout                           : C L R Ls Rs LFE
  51. Sampling rate                            : 48.0 kHz
  52. Frame rate                               : 23.438 FPS (2048 SPF)
  53. Compression mode                         : Lossy
  54. Stream size                              : 176 MiB (15%)
  55. Title                                    : Hindi
  56. Language                                 : Hindi
  57. Default                                  : Yes
  58. Forced                                   : No
  59.  
  60. Text
  61. ID                                       : 3
  62. Format                                   : PGS
  63. Codec ID                                 : S_HDMV/PGS
  64. Codec ID/Info                            : Picture based subtitle format used on BDs/HD-DVDs
  65. Duration                                 : 2 h 7 min
  66. Bit rate                                 : 25.0 kb/s
  67. Frame rate                               : 0.365 FPS
  68. Count of elements                        : 2796
  69. Stream size                              : 22.9 MiB (2%)
  70. Title                                    : English [PGS]
  71. Language                                 : English
  72. Default                                  : Yes
  73. Forced                                   : No
  74.  
  75. Menu
  76. 00:00:00.000                             : Chapter 01
  77. 00:08:02.565                             : Chapter 02
  78. 00:16:47.340                             : Chapter 03
  79. 00:24:41.313                             : Chapter 04
  80. 00:32:52.888                             : Chapter 05
  81. 00:38:51.704                             : Chapter 06
  82. 00:48:31.117                             : Chapter 07
  83. 00:56:32.014                             : Chapter 08
  84. 01:03:06.324                             : Chapter 09
  85. 01:10:32.061                             : Chapter 10
  86. 01:17:45.744                             : Chapter 11
  87. 01:26:27.682                             : Chapter 12
  88. 01:35:39.692                             : Chapter 13
  89. 01:43:52.643                             : Chapter 14
  90. 01:52:36.541                             : Chapter 15
  91. 02:02:20.375                             : Chapter 16