The text below is selected, press Ctrl+C to copy to your clipboard. (⌘+C on Mac) No line numbers will be copied.
Adrift (2018) 1080p 10bit

15th January 2022 02:51:08 PM | Views: 71
  1. Format                                   : Matroska
  2. Format version                           : Version 4
  3. File size                                : 2.16 GiB
  4. Duration                                 : 1 h 36 min
  5. Overall bit rate                         : 3 191 kb/s
  6. Movie name                               : Adrift (2018) 1080p BluRay x265 10bit HEVC Dual Audio [Hindi DD2.0 + English BD5.1] ESub 2.15GB [www.MoviezAddiction.art]
  7. Encoded date                             : UTC 2022-01-15 13:13:15
  8. Writing application                      : mkvmerge v47.0.0 ('Black Flag') 64-bit
  9. Writing library                          : libebml v1.3.10 + libmatroska v1.5.2
  10.  
  11. Video
  12. ID                                       : 1
  13. Format                                   : HEVC
  14. Format/Info                              : High Efficiency Video Coding
  15. Format profile                           : Main [email protected]@Main
  16. Codec ID                                 : V_MPEGH/ISO/HEVC
  17. Duration                                 : 1 h 36 min
  18. Bit rate                                 : 2 297 kb/s
  19. Width                                    : 1 920 pixels
  20. Height                                   : 808 pixels
  21. Display aspect ratio                     : 2.40:1
  22. Frame rate mode                          : Constant
  23. Frame rate                               : 23.976 (24000/1001) FPS
  24. Color space                              : YUV
  25. Chroma subsampling                       : 4:2:0
  26. Bit depth                                : 10 bits
  27. Bits/(Pixel*Frame)                       : 0.062
  28. Stream size                              : 1.55 GiB (72%)
  29. Title                                    : [www.MoviezAddiction.art]
  30. Default                                  : Yes
  31. Forced                                   : No
  32.  
  33. Audio #1
  34. ID                                       : 2
  35. Format                                   : AC-3
  36. Format/Info                              : Audio Coding 3
  37. Commercial name                          : Dolby Digital
  38. Codec ID                                 : A_AC3
  39. Duration                                 : 1 h 36 min
  40. Bit rate mode                            : Constant
  41. Bit rate                                 : 224 kb/s
  42. Channel(s)                               : 2 channels
  43. Channel layout                           : L R
  44. Sampling rate                            : 48.0 kHz
  45. Frame rate                               : 31.250 FPS (1536 SPF)
  46. Compression mode                         : Lossy
  47. Stream size                              : 155 MiB (7%)
  48. Title                                    : [www.MoviezAddiction.art] - Hindi
  49. Language                                 : Hindi
  50. Service kind                             : Complete Main
  51. Default                                  : Yes
  52. Forced                                   : No
  53.  
  54. Audio #2
  55. ID                                       : 3
  56. Format                                   : AC-3
  57. Format/Info                              : Audio Coding 3
  58. Commercial name                          : Dolby Digital
  59. Codec ID                                 : A_AC3
  60. Duration                                 : 1 h 36 min
  61. Bit rate mode                            : Constant
  62. Bit rate                                 : 640 kb/s
  63. Channel(s)                               : 6 channels
  64. Channel layout                           : L R C LFE Ls Rs
  65. Sampling rate                            : 48.0 kHz
  66. Frame rate                               : 31.250 FPS (1536 SPF)
  67. Compression mode                         : Lossy
  68. Stream size                              : 443 MiB (20%)
  69. Title                                    : [www.MoviezAddiction.art] - English
  70. Language                                 : English
  71. Service kind                             : Complete Main
  72. Default                                  : No
  73. Forced                                   : No
  74.  
  75. Text
  76. ID                                       : 4
  77. Format                                   : PGS
  78. Codec ID                                 : S_HDMV/PGS
  79. Codec ID/Info                            : Picture based subtitle format used on BDs/HD-DVDs
  80. Duration                                 : 1 h 28 min
  81. Bit rate                                 : 31.1 kb/s
  82. Count of elements                        : 1990
  83. Stream size                              : 19.6 MiB (1%)
  84. Title                                    : [www.MoviezAddiction.art] - English [SDH] [PGS]
  85. Language                                 : English
  86. Default                                  : Yes
  87. Forced                                   : No
  88.  
  89. Menu
  90. 00:00:00.000                             : en:Chapter 1
  91. 00:05:18.944                             : en:Chapter 2
  92. 00:08:04.401                             : en:Chapter 3
  93. 00:14:01.257                             : en:Chapter 4
  94. 00:19:38.010                             : en:Chapter 5
  95. 00:24:46.568                             : en:Chapter 6
  96. 00:29:42.572                             : en:Chapter 7
  97. 00:34:45.709                             : en:Chapter 8
  98. 00:37:20.947                             : en:Chapter 9
  99. 00:43:30.024                             : en:Chapter 10
  100. 00:49:43.564                             : en:Chapter 11
  101. 00:52:40.532                             : en:Chapter 12
  102. 00:58:12.447                             : en:Chapter 13
  103. 01:06:31.029                             : en:Chapter 14
  104. 01:11:19.650                             : en:Chapter 15
  105. 01:14:07.151                             : en:Chapter 16
  106. 01:18:06.974                             : en:Chapter 17
  107. 01:24:15.550                             : en:Chapter 18
  108. 01:27:22.446                             : en:Chapter 19
  109. 01:31:34.489                             : en:Chapter 20