The text below is selected, press Ctrl+C to copy to your clipboard. (⌘+C on Mac) No line numbers will be copied.
The Thing (1982) ARROW REMASTERED...

6th November 2022 04:08:34 PM | Views: 18
  1. Format                                   : Matroska
  2. Format version                           : Version 4
  3. File size                                : 31.4 GiB
  4. Duration                                 : 1 h 48 min
  5. Overall bit rate mode                    : Variable
  6. Overall bit rate                         : 41.4 Mb/s
  7. Movie name                               : The Thing (1982) ARROW REMASTERED 1080p BluRay REMUX x264 Dual Audio [Hindi VCD DD2.0 + English DTS-X 7.1] ESub 31.3GB [MoviezAddiction.life]
  8. Encoded date                             : UTC 2022-11-06 00:44:50
  9. Writing application                      : mkvmerge v71.1.0 ('Fortitude') 64-bit
  10. Writing library                          : libebml v1.4.4 + libmatroska v1.7.1
  11.  
  12. Video
  13. ID                                       : 1
  14. Format                                   : AVC
  15. Format/Info                              : Advanced Video Codec
  16. Format profile                           : [email protected]
  17. Format settings                          : CABAC / 3 Ref Frames
  18. Format settings, CABAC                   : Yes
  19. Format settings, Reference frames        : 3 frames
  20. Codec ID                                 : V_MPEG4/ISO/AVC
  21. Duration                                 : 1 h 48 min
  22. Bit rate mode                            : Variable
  23. Bit rate                                 : 34.5 Mb/s
  24. Maximum bit rate                         : 35.0 Mb/s
  25. Width                                    : 1 920 pixels
  26. Height                                   : 1 080 pixels
  27. Display aspect ratio                     : 16:9
  28. Frame rate mode                          : Constant
  29. Frame rate                               : 23.976 (24000/1001) FPS
  30. Standard                                 : NTSC
  31. Color space                              : YUV
  32. Chroma subsampling                       : 4:2:0
  33. Bit depth                                : 8 bits
  34. Scan type                                : Progressive
  35. Bits/(Pixel*Frame)                       : 0.693
  36. Stream size                              : 26.1 GiB (83%)
  37. Writing library                          : x264pro - Adobe CS Exporter Plug-in
  38. Encoding settings                        : cabac=1 / ref=4 / deblock=1:-2:-2 / analyse=0x3:0x113 / me=umh / subme=9 / psy=1 / psy_rd=1.00:0.25 / mixed_ref=1 / me_range=16 / chroma_me=1 / trellis=1 / 8x8dct=1 / cqm=0 / deadzone=6,6 / fast_pskip=1 / chroma_qp_offset=-4 / threads=16 / lookahead_threads=2 / sliced_threads=0 / slices=4 / nr=0 / decimate=0 / interlaced=0 / bluray_compat=1 / constrained_intra=0 / bframes=3 / b_pyramid=1 / b_adapt=2 / b_bias=0 / direct=3 / weightb=1 / open_gop=0 / weightp=1 / keyint=24 / keyint_min=1 / scenecut=40 / intra_refresh=0 / rc_lookahead=24 / rc=crf / mbtree=1 / crf=1.0 / qcomp=0.80 / qpmin=0 / qpmax=69 / qpstep=4 / vbv_maxrate=35000 / vbv_bufsize=30000 / crf_max=0.0 / nal_hrd=vbr / ip_ratio=1.10 / aq=1:0.50
  39. Default                                  : Yes
  40. Forced                                   : No
  41. Color range                              : Limited
  42. Color primaries                          : BT.709
  43. Transfer characteristics                 : BT.709
  44. Matrix coefficients                      : BT.709
  45.  
  46. Audio #1
  47. ID                                       : 2
  48. Format                                   : AC-3
  49. Format/Info                              : Audio Coding 3
  50. Commercial name                          : Dolby Digital
  51. Codec ID                                 : A_AC3
  52. Duration                                 : 1 h 48 min
  53. Bit rate mode                            : Constant
  54. Bit rate                                 : 224 kb/s
  55. Channel(s)                               : 2 channels
  56. Channel layout                           : L R
  57. Sampling rate                            : 48.0 kHz
  58. Frame rate                               : 31.250 FPS (1536 SPF)
  59. Compression mode                         : Lossy
  60. Stream size                              : 174 MiB (1%)
  61. Title                                    : Hindi
  62. Language                                 : Hindi
  63. Service kind                             : Complete Main
  64. Default                                  : Yes
  65. Forced                                   : No
  66.  
  67. Audio #2
  68. ID                                       : 3
  69. ID in the original source medium         : 4352 (0x1100)
  70. Format                                   : DTS XLL X
  71. Format/Info                              : Digital Theater Systems
  72. Commercial name                          : DTS-HD Master Audio
  73. Codec ID                                 : A_DTS
  74. Duration                                 : 1 h 48 min
  75. Bit rate mode                            : Variable
  76. Bit rate                                 : 6 697 kb/s
  77. Channel(s)                               : 8 channels
  78. Channel(s)_Original                      : Object Based
  79. ChannelLayout_Original                   : Object Based
  80. Sampling rate                            : 48.0 kHz
  81. Frame rate                               : 93.750 FPS (512 SPF)
  82. Bit depth                                : 24 bits
  83. Delay relative to video                  : -990 ms
  84. Stream size                              : 5.08 GiB (16%)
  85. Title                                    : English
  86. Language                                 : English
  87. Default                                  : No
  88. Forced                                   : No
  89. Original source medium                   : Blu-ray
  90.  
  91. Text
  92. ID                                       : 4
  93. Format                                   : PGS
  94. Codec ID                                 : S_HDMV/PGS
  95. Codec ID/Info                            : Picture based subtitle format used on BDs/HD-DVDs
  96. Duration                                 : 1 h 36 min
  97. Bit rate                                 : 19.1 kb/s
  98. Frame rate                               : 0.219 FPS
  99. Count of elements                        : 1266
  100. Stream size                              : 13.2 MiB (0%)
  101. Title                                    : English [PGS]
  102. Language                                 : English
  103. Default                                  : Yes
  104. Forced                                   : No
  105.  
  106. Menu
  107. 00:00:00.990                             : en:Chapter 01
  108. 00:02:07.908                             : en:Chapter 02
  109. 00:10:23.069                             : en:Chapter 03
  110. 00:15:48.728                             : en:Chapter 04
  111. 00:22:13.195                             : en:Chapter 05
  112. 00:27:00.482                             : en:Chapter 06
  113. 00:33:03.261                             : en:Chapter 07
  114. 00:37:21.645                             : en:Chapter 08
  115. 00:41:43.698                             : en:Chapter 09
  116. 00:46:30.943                             : en:Chapter 10
  117. 00:52:15.788                             : en:Chapter 11
  118. 00:57:35.482                             : en:Chapter 12
  119. 01:01:01.647                             : en:Chapter 13
  120. 01:06:15.377                             : en:Chapter 14
  121. 01:09:50.925                             : en:Chapter 15
  122. 01:14:22.613                             : en:Chapter 16
  123. 01:18:44.333                             : en:Chapter 17
  124. 01:27:59.429                             : en:Chapter 18
  125. 01:33:20.417                             : en:Chapter 19
  126. 01:37:48.268                             : en:Chapter 20
  127. 01:39:13.019                             : en:Chapter 21
  128. 01:42:08.694                             : en:Chapter 22
  129. 01:48:33.329                             : en:Chapter 23