The text below is selected, press Ctrl+C to copy to your clipboard. (⌘+C on Mac) No line numbers will be copied.
Overdose (2022) 1080p AMZN WEB-DL...

5th November 2022 06:39:25 AM | Views: 16
  1. Format                                   : Matroska
  2. Format version                           : Version 4
  3. File size                                : 2.49 GiB
  4. Duration                                 : 1 h 59 min
  5. Overall bit rate                         : 2 983 kb/s
  6. Movie name                               : Overdose (2022) 1080p AMZN WEB-DL x265 10bit HEVC Dual Audio [Hindi DDP5.1 + English DDP5.1] ESub 2.49GB [MoviezAddiction.life]
  7. Encoded date                             : UTC 2022-11-05 02:24:39
  8. Writing application                      : mkvmerge v71.1.0 ('Fortitude') 64-bit
  9. Writing library                          : libebml v1.4.4 + libmatroska v1.7.1
  10.  
  11. Video
  12. ID                                       : 1
  13. Format                                   : HEVC
  14. Format/Info                              : High Efficiency Video Coding
  15. Format profile                           : Main [email protected]@Main
  16. Codec ID                                 : V_MPEGH/ISO/HEVC
  17. Duration                                 : 1 h 59 min
  18. Bit rate                                 : 1 700 kb/s
  19. Width                                    : 1 920 pixels
  20. Height                                   : 800 pixels
  21. Display aspect ratio                     : 2.40:1
  22. Frame rate mode                          : Variable
  23. Frame rate                               : 24.000 FPS
  24. Color space                              : YUV
  25. Chroma subsampling                       : 4:2:0
  26. Bit depth                                : 10 bits
  27. Bits/(Pixel*Frame)                       : 0.046
  28. Stream size                              : 1.42 GiB (57%)
  29. Default                                  : Yes
  30. Forced                                   : No
  31. Color range                              : Limited
  32. Color primaries                          : BT.709
  33. Transfer characteristics                 : BT.709
  34. Matrix coefficients                      : BT.709
  35.  
  36. Audio #1
  37. ID                                       : 2
  38. Format                                   : E-AC-3
  39. Format/Info                              : Enhanced AC-3
  40. Commercial name                          : Dolby Digital Plus
  41. Codec ID                                 : A_EAC3
  42. Duration                                 : 1 h 59 min
  43. Bit rate mode                            : Constant
  44. Bit rate                                 : 640 kb/s
  45. Channel(s)                               : 6 channels
  46. Channel layout                           : L R C LFE Ls Rs
  47. Sampling rate                            : 48.0 kHz
  48. Frame rate                               : 31.250 FPS (1536 SPF)
  49. Compression mode                         : Lossy
  50. Stream size                              : 548 MiB (21%)
  51. Title                                    : Hindi
  52. Language                                 : Hindi
  53. Service kind                             : Complete Main
  54. Default                                  : Yes
  55. Forced                                   : No
  56.  
  57. Audio #2
  58. ID                                       : 3
  59. Format                                   : E-AC-3
  60. Format/Info                              : Enhanced AC-3
  61. Commercial name                          : Dolby Digital Plus
  62. Codec ID                                 : A_EAC3
  63. Duration                                 : 1 h 59 min
  64. Bit rate mode                            : Constant
  65. Bit rate                                 : 640 kb/s
  66. Channel(s)                               : 6 channels
  67. Channel layout                           : L R C LFE Ls Rs
  68. Sampling rate                            : 48.0 kHz
  69. Frame rate                               : 31.250 FPS (1536 SPF)
  70. Compression mode                         : Lossy
  71. Stream size                              : 548 MiB (21%)
  72. Title                                    : English
  73. Language                                 : English
  74. Service kind                             : Complete Main
  75. Default                                  : No
  76. Forced                                   : No
  77.  
  78. Text
  79. ID                                       : 4
  80. Format                                   : UTF-8
  81. Codec ID                                 : S_TEXT/UTF8
  82. Codec ID/Info                            : UTF-8 Plain Text
  83. Duration                                 : 1 h 58 min
  84. Bit rate                                 : 44 b/s
  85. Frame rate                               : 0.186 FPS
  86. Count of elements                        : 1323
  87. Stream size                              : 38.3 KiB (0%)
  88. Title                                    : English [SRT]
  89. Language                                 : English
  90. Default                                  : Yes
  91. Forced                                   : No
  92.  
  93. Menu
  94. 00:00:00.000                             : en:Amazon Original
  95. 00:00:05.000                             : en:Studio Logo
  96. 00:00:30.000                             : en:Scene 3
  97. 00:00:43.000                             : en:Scene 4
  98. 00:01:39.000                             : en:Title Sequence
  99. 00:01:46.000                             : en:Scene 6
  100. 00:03:35.000                             : en:Scene 7
  101. 00:04:58.000                             : en:Scene 8
  102. 00:06:04.000                             : en:Scene 9
  103. 00:07:33.000                             : en:Scene 10
  104. 00:08:22.000                             : en:Scene 11
  105. 00:09:36.000                             : en:Scene 12
  106. 00:11:28.000                             : en:Scene 13
  107. 00:14:17.000                             : en:Scene 14
  108. 00:15:14.000                             : en:Scene 15
  109. 00:19:15.000                             : en:Scene 16
  110. 00:19:43.000                             : en:Scene 17
  111. 00:21:35.000                             : en:Scene 18
  112. 00:23:23.000                             : en:Scene 19
  113. 00:25:01.000                             : en:Scene 20
  114. 00:26:24.000                             : en:Scene 21
  115. 00:27:27.000                             : en:Scene 22
  116. 00:28:23.000                             : en:Scene 23
  117. 00:29:59.000                             : en:Scene 24
  118. 00:30:30.000                             : en:Scene 25
  119. 00:33:27.000                             : en:Scene 26
  120. 00:37:51.000                             : en:Scene 27
  121. 00:40:50.000                             : en:Scene 28
  122. 00:42:57.000                             : en:Scene 29
  123. 00:44:28.000                             : en:Scene 30
  124. 00:45:20.000                             : en:Scene 31
  125. 00:48:52.000                             : en:Scene 32
  126. 00:50:43.000                             : en:Scene 33
  127. 00:53:34.000                             : en:Scene 34
  128. 00:56:15.000                             : en:Scene 35
  129. 00:57:33.000                             : en:Scene 36
  130. 00:58:36.000                             : en:Scene 37
  131. 00:59:36.000                             : en:Scene 38
  132. 01:00:24.000                             : en:Scene 39
  133. 01:05:43.000                             : en:Scene 40
  134. 01:06:43.000                             : en:Scene 41
  135. 01:09:22.000                             : en:Scene 42
  136. 01:10:49.000                             : en:Scene 43
  137. 01:11:57.000                             : en:Scene 44
  138. 01:13:52.000                             : en:Scene 45
  139. 01:15:40.000                             : en:Scene 46
  140. 01:18:31.000                             : en:Scene 47
  141. 01:20:31.000                             : en:Scene 48
  142. 01:20:52.000                             : en:Scene 49
  143. 01:24:31.000                             : en:Scene 50
  144. 01:26:47.000                             : en:Scene 51
  145. 01:28:09.000                             : en:Scene 52
  146. 01:28:23.000                             : en:Scene 53
  147. 01:28:37.000                             : en:Scene 54
  148. 01:30:20.000                             : en:Scene 55
  149. 01:30:59.000                             : en:Scene 56
  150. 01:34:55.000                             : en:Scene 57
  151. 01:36:06.000                             : en:Scene 58
  152. 01:38:47.000                             : en:Scene 59
  153. 01:39:51.000                             : en:Scene 60
  154. 01:40:35.000                             : en:Scene 61
  155. 01:41:20.000                             : en:Scene 62
  156. 01:43:04.000                             : en:Scene 63
  157. 01:47:40.000                             : en:Scene 64
  158. 01:51:40.000                             : en:Scene 65
  159. 01:53:23.000                             : en:End Credits