The text below is selected, press Ctrl+C to copy to your clipboard. (⌘+C on Mac) No line numbers will be copied.
The Falling World (2022) 1080p...

20th January 2023 01:24:10 AM | Views: 7
  1. Format                                   : Matroska
  2. Format version                           : Version 4
  3. File size                                : 4.83 GiB
  4. Duration                                 : 1 h 12 min
  5. Overall bit rate                         : 9 581 kb/s
  6. Movie name                               : The Falling World (2022) 1080p AMZN WEB-DL x264 English DDP5.1 ESub 4.83GB [MoviezAddiction]
  7. Encoded date                             : UTC 2023-01-18 07:52:33
  8. Writing application                      : mkvmerge v72.0.0 ('Minuano (Six-eight)') 64-bit
  9. Writing library                          : libebml v1.4.4 + libmatroska v1.7.1
  10.  
  11. Video
  12. ID                                       : 1
  13. Format                                   : AVC
  14. Format/Info                              : Advanced Video Codec
  15. Format profile                           : [email protected]
  16. Format settings                          : CABAC / 4 Ref Frames
  17. Format settings, CABAC                   : Yes
  18. Format settings, Reference frames        : 4 frames
  19. Codec ID                                 : V_MPEG4/ISO/AVC
  20. Duration                                 : 1 h 12 min
  21. Bit rate mode                            : Constant
  22. Bit rate                                 : 8 939 kb/s
  23. Nominal bit rate                         : 10 000 kb/s
  24. Width                                    : 1 920 pixels
  25. Height                                   : 1 080 pixels
  26. Display aspect ratio                     : 16:9
  27. Frame rate mode                          : Constant
  28. Frame rate                               : 23.976 (24000/1001) FPS
  29. Color space                              : YUV
  30. Chroma subsampling                       : 4:2:0
  31. Bit depth                                : 8 bits
  32. Scan type                                : Progressive
  33. Bits/(Pixel*Frame)                       : 0.180
  34. Stream size                              : 4.51 GiB (93%)
  35. Default                                  : Yes
  36. Forced                                   : No
  37. Color range                              : Limited
  38. Color primaries                          : BT.709
  39. Transfer characteristics                 : BT.709
  40. Matrix coefficients                      : BT.709
  41.  
  42. Audio
  43. ID                                       : 2
  44. Format                                   : E-AC-3
  45. Format/Info                              : Enhanced AC-3
  46. Commercial name                          : Dolby Digital Plus
  47. Codec ID                                 : A_EAC3
  48. Duration                                 : 1 h 12 min
  49. Bit rate mode                            : Constant
  50. Bit rate                                 : 640 kb/s
  51. Channel(s)                               : 6 channels
  52. Channel layout                           : L R C LFE Ls Rs
  53. Sampling rate                            : 48.0 kHz
  54. Frame rate                               : 31.250 FPS (1536 SPF)
  55. Compression mode                         : Lossy
  56. Stream size                              : 331 MiB (7%)
  57. Title                                    : English
  58. Language                                 : English
  59. Service kind                             : Complete Main
  60. Default                                  : Yes
  61. Forced                                   : No
  62.  
  63. Text
  64. ID                                       : 3
  65. Format                                   : UTF-8
  66. Codec ID                                 : S_TEXT/UTF8
  67. Codec ID/Info                            : UTF-8 Plain Text
  68. Duration                                 : 1 h 11 min
  69. Bit rate                                 : 88 b/s
  70. Count of elements                        : 1487
  71. Stream size                              : 46.6 KiB (0%)
  72. Title                                    : English [SRT]
  73. Language                                 : English
  74. Default                                  : Yes
  75. Forced                                   : No