The text below is selected, press Ctrl+C to copy to your clipboard. (⌘+C on Mac) No line numbers will be copied.
Halloween Kills (2021) EXTENDED 1080p...

13th January 2022 07:57:47 AM | Views: 59
  1. Format                                   : Matroska
  2. Format version                           : Version 4
  3. File size                                : 22.6 GiB
  4. Duration                                 : 1 h 49 min
  5. Overall bit rate mode                    : Variable
  6. Overall bit rate                         : 29.6 Mb/s
  7. Movie name                               : Halloween Kills (2021) EXTENDED 1080p BluRay REMUX x264 English DTS-HD MA 7.1 MSubs 22.5GB [www.MoviezAddiction.art]
  8. Encoded date                             : UTC 2022-01-13 05:02:27
  9. Writing application                      : mkvmerge v47.0.0 ('Black Flag') 64-bit
  10. Writing library                          : libebml v1.3.10 + libmatroska v1.5.2
  11.  
  12. Video
  13. ID                                       : 1
  14. ID in the original source medium         : 4113 (0x1011)
  15. Format                                   : AVC
  16. Format/Info                              : Advanced Video Codec
  17. Format profile                           : [email protected]
  18. Format settings                          : CABAC / 2 Ref Frames
  19. Format settings, CABAC                   : Yes
  20. Format settings, Reference frames        : 2 frames
  21. Format settings, GOP                     : M=1, N=10
  22. Codec ID                                 : V_MPEG4/ISO/AVC
  23. Duration                                 : 1 h 49 min
  24. Bit rate mode                            : Variable
  25. Bit rate                                 : 25.8 Mb/s
  26. Width                                    : 1 920 pixels
  27. Height                                   : 1 080 pixels
  28. Display aspect ratio                     : 16:9
  29. Frame rate mode                          : Constant
  30. Frame rate                               : 23.976 (24000/1001) FPS
  31. Color space                              : YUV
  32. Chroma subsampling                       : 4:2:0
  33. Bit depth                                : 8 bits
  34. Scan type                                : Progressive
  35. Bits/(Pixel*Frame)                       : 0.519
  36. Stream size                              : 19.7 GiB (87%)
  37. Title                                    : [www.MoviezAddiction.art]
  38. Default                                  : Yes
  39. Forced                                   : No
  40. Original source medium                   : Blu-ray
  41.  
  42. Audio
  43. ID                                       : 2
  44. Format                                   : DTS XLL
  45. Format/Info                              : Digital Theater Systems
  46. Commercial name                          : DTS-HD Master Audio
  47. Codec ID                                 : A_DTS
  48. Duration                                 : 1 h 49 min
  49. Bit rate mode                            : Variable
  50. Bit rate                                 : 3 727 kb/s
  51. Channel(s)                               : 8 channels
  52. Channel layout                           : C L R LFE Lb Rb Lss Rss
  53. Sampling rate                            : 48.0 kHz
  54. Frame rate                               : 93.750 FPS (512 SPF)
  55. Bit depth                                : 24 bits
  56. Compression mode                         : Lossless
  57. Stream size                              : 2.84 GiB (13%)
  58. Title                                    : [www.MoviezAddiction.art] - English
  59. Language                                 : English
  60. Default                                  : Yes
  61. Forced                                   : No
  62.  
  63. Text #1
  64. ID                                       : 3
  65. ID in the original source medium         : 4608 (0x1200)
  66. Format                                   : PGS
  67. Codec ID                                 : S_HDMV/PGS
  68. Codec ID/Info                            : Picture based subtitle format used on BDs/HD-DVDs
  69. Duration                                 : 1 h 45 min
  70. Bit rate                                 : 40.0 kb/s
  71. Count of elements                        : 2980
  72. Stream size                              : 30.1 MiB (0%)
  73. Title                                    : [www.MoviezAddiction.art] - English [PGS]
  74. Language                                 : English
  75. Default                                  : Yes
  76. Forced                                   : No
  77. Original source medium                   : Blu-ray
  78.  
  79. Text #2
  80. ID                                       : 4
  81. ID in the original source medium         : 4611 (0x1203)
  82. Format                                   : PGS
  83. Codec ID                                 : S_HDMV/PGS
  84. Codec ID/Info                            : Picture based subtitle format used on BDs/HD-DVDs
  85. Duration                                 : 1 h 44 min
  86. Bit rate                                 : 77.7 kb/s
  87. Count of elements                        : 3990
  88. Stream size                              : 57.9 MiB (0%)
  89. Title                                    : [www.MoviezAddiction.art] - English [SDH] [PGS]
  90. Language                                 : English
  91. Default                                  : No
  92. Forced                                   : No
  93. Original source medium                   : Blu-ray
  94.  
  95. Menu
  96. 00:00:00.000                             : en:Chapter 01
  97. 00:08:17.788                             : en:Chapter 02
  98. 00:15:10.659                             : en:Chapter 03
  99. 00:19:55.110                             : en:Chapter 04
  100. 00:26:17.576                             : en:Chapter 05
  101. 00:32:31.950                             : en:Chapter 06
  102. 00:38:01.612                             : en:Chapter 07
  103. 00:42:30.214                             : en:Chapter 08
  104. 00:46:52.935                             : en:Chapter 09
  105. 00:49:09.112                             : en:Chapter 10
  106. 00:55:07.721                             : en:Chapter 11
  107. 01:01:32.980                             : en:Chapter 12
  108. 01:06:04.585                             : en:Chapter 13
  109. 01:11:29.493                             : en:Chapter 14
  110. 01:16:19.408                             : en:Chapter 15
  111. 01:22:15.722                             : en:Chapter 16
  112. 01:26:25.805                             : en:Chapter 17
  113. 01:30:06.609                             : en:Chapter 18
  114. 01:35:24.593                             : en:Chapter 19
  115. 01:44:07.658                             : en:Chapter 20