The text below is selected, press Ctrl+C to copy to your clipboard. (⌘+C on Mac) No line numbers will be copied.
Snowpiercer 1080p

26th June 2020 02:21:45 PM | Views: 72
  1. Format                                   : Matroska
  2. Format version                           : Version 4
  3. File size                                : 961 MiB
  4. Duration                                 : 46 min 3 s
  5. Overall bit rate                         : 2 919 kb/s
  6. Movie name                               : Snowpiercer (2020) S01E03 [ Access Is Power ] 1080p WEB-DL x264 Dual Audio [ Hindi DDP5.1 + English DD5.1 ]┬áMSubs [Www.MoviezAddiction.site]
  7. Encoded date                             : UTC 2020-06-26 12:08:06
  8. Writing application                      : mkvmerge v47.0.0 ('Black Flag') 64-bit
  9. Writing library                          : libebml v1.3.10 + libmatroska v1.5.2
  10.  
  11. Video
  12. ID                                       : 4
  13. Format                                   : AVC
  14. Format/Info                              : Advanced Video Codec
  15. Format profile                           : [email protected]
  16. Format settings                          : CABAC / 4 Ref Frames
  17. Format settings, CABAC                   : Yes
  18. Format settings, Reference frames        : 4 frames
  19. Codec ID                                 : V_MPEG4/ISO/AVC
  20. Duration                                 : 45 min 57 s
  21. Bit rate                                 : 2 089 kb/s
  22. Width                                    : 1 920 pixels
  23. Height                                   : 1 080 pixels
  24. Display aspect ratio                     : 16:9
  25. Frame rate mode                          : Constant
  26. Frame rate                               : 23.976 (24000/1001) FPS
  27. Color space                              : YUV
  28. Chroma subsampling                       : 4:2:0
  29. Bit depth                                : 8 bits
  30. Scan type                                : Progressive
  31. Bits/(Pixel*Frame)                       : 0.042
  32. Stream size                              : 687 MiB (71%)
  33. Title                                    : [Www.MoviezAddiction.site]
  34. Writing library                          : x264 core 155 r2901 7d0ff22
  35. Encoding settings                        : cabac=1 / ref=4 / deblock=1:-2:-2 / analyse=0x3:0x133 / me=umh / subme=10 / psy=1 / psy_rd=1.00:0.15 / mixed_ref=1 / me_range=32 / chroma_me=1 / trellis=2 / 8x8dct=1 / cqm=0 / deadzone=21,11 / fast_pskip=1 / chroma_qp_offset=-3 / threads=18 / lookahead_threads=1 / sliced_threads=0 / nr=0 / decimate=1 / interlaced=0 / bluray_compat=0 / constrained_intra=0 / bframes=3 / b_pyramid=2 / b_adapt=2 / b_bias=0 / direct=3 / weightb=1 / open_gop=0 / weightp=2 / keyint=250 / keyint_min=23 / scenecut=40 / intra_refresh=0 / rc_lookahead=60 / rc=2pass / mbtree=1 / bitrate=2089 / ratetol=1.0 / qcomp=0.60 / qpmin=0 / qpmax=69 / qpstep=4 / cplxblur=20.0 / qblur=0.5 / vbv_maxrate=15500 / vbv_bufsize=16000 / nal_hrd=none / filler=0 / ip_ratio=1.40 / aq=1:0.80
  36. Default                                  : Yes
  37. Forced                                   : No
  38.  
  39. Audio #1
  40. ID                                       : 1
  41. Format                                   : E-AC-3
  42. Format/Info                              : Enhanced AC-3
  43. Commercial name                          : Dolby Digital Plus
  44. Codec ID                                 : A_EAC3
  45. Duration                                 : 46 min 3 s
  46. Bit rate mode                            : Constant
  47. Bit rate                                 : 640 kb/s
  48. Channel(s)                               : 6 channels
  49. Channel layout                           : L R C LFE Ls Rs
  50. Sampling rate                            : 48.0 kHz
  51. Frame rate                               : 31.250 FPS (1536 SPF)
  52. Compression mode                         : Lossy
  53. Stream size                              : 211 MiB (22%)
  54. Title                                    : [Www.MoviezAddiction.site]
  55. Language                                 : Hindi
  56. Service kind                             : Complete Main
  57. Default                                  : Yes
  58. Forced                                   : Yes
  59.  
  60. Audio #2
  61. ID                                       : 5
  62. Format                                   : AAC LC SBR
  63. Format/Info                              : Advanced Audio Codec Low Complexity with Spectral Band Replication
  64. Commercial name                          : HE-AAC
  65. Format settings                          : Explicit
  66. Codec ID                                 : A_AAC-2
  67. Duration                                 : 45 min 57 s
  68. Bit rate                                 : 192 kb/s
  69. Channel(s)                               : 6 channels
  70. Channel layout                           : C L R Ls Rs LFE
  71. Sampling rate                            : 48.0 kHz
  72. Frame rate                               : 23.438 FPS (2048 SPF)
  73. Compression mode                         : Lossy
  74. Delay relative to video                  : 31 ms
  75. Stream size                              : 63.1 MiB (7%)
  76. Title                                    : [Www.MoviezAddiction.site]
  77. Language                                 : English
  78. Default                                  : No
  79. Forced                                   : No
  80.  
  81. Text #1
  82. ID                                       : 2
  83. Format                                   : UTF-8
  84. Codec ID                                 : S_TEXT/UTF8
  85. Codec ID/Info                            : UTF-8 Plain Text
  86. Duration                                 : 44 min 7 s
  87. Bit rate                                 : 67 b/s
  88. Count of elements                        : 579
  89. Stream size                              : 21.9 KiB (0%)
  90. Title                                    : [Www.MoviezAddiction.site]
  91. Language                                 : English
  92. Default                                  : No
  93. Forced                                   : No
  94.  
  95. Text #2
  96. ID                                       : 3
  97. Format                                   : UTF-8
  98. Codec ID                                 : S_TEXT/UTF8
  99. Codec ID/Info                            : UTF-8 Plain Text
  100. Duration                                 : 44 min 37 s
  101. Bit rate                                 : 155 b/s
  102. Count of elements                        : 524
  103. Stream size                              : 50.7 KiB (0%)
  104. Title                                    : [Www.MoviezAddiction.site]
  105. Language                                 : Hindi
  106. Default                                  : Yes
  107. Forced                                   : Yes