The text below is selected, press Ctrl+C to copy to your clipboard. (⌘+C on Mac) No line numbers will be copied.
Daylight 1996

16th September 2020 04:36:22 PM | Views: 39
  1. General
  2. Unique ID                                : 196744878435908703441958377130390226110 (0x9403AF6E68A5ED3FB7E2DDD29A6884BE)
  3. Complete name                            : Daylight 1996 1080p BluRay x264 (Hindi DD 5.1 + English DD 5.1) ~LustMovies.pro~ (5.0 G).mkv
  4. Format                                   : Matroska
  5. Format version                           : Version 4
  6. File size                                : 5.05 GiB
  7. Duration                                 : 1 h 54 min
  8. Overall bit rate                         : 6 313 kb/s
  9. Movie name                               : LustMovies.pro | Daylight 1996
  10. Encoded date                             : UTC 2020-09-16 10:48:19
  11. Writing application                      : mkvmerge v8.2.0 ('World of Adventure') 32bit
  12. Writing library                          : libebml v1.3.1 + libmatroska v1.4.2
  13.  
  14. Video
  15. ID                                       : 1
  16. Format                                   : AVC
  17. Format/Info                              : Advanced Video Codec
  18. Format profile                           : [email protected]
  19. Format settings                          : CABAC / 4 Ref Frames
  20. Format settings, CABAC                   : Yes
  21. Format settings, Reference frames        : 4 frames
  22. Codec ID                                 : V_MPEG4/ISO/AVC
  23. Duration                                 : 1 h 54 min
  24. Bit rate                                 : 5 000 kb/s
  25. Width                                    : 1 920 pixels
  26. Height                                   : 1 040 pixels
  27. Display aspect ratio                     : 1.85:1
  28. Frame rate mode                          : Constant
  29. Frame rate                               : 23.976 (24000/1001) FPS
  30. Color space                              : YUV
  31. Chroma subsampling                       : 4:2:0
  32. Bit depth                                : 8 bits
  33. Scan type                                : Progressive
  34. Bits/(Pixel*Frame)                       : 0.104
  35. Stream size                              : 3.92 GiB (78%)
  36. Title                                    : LustMovies.pro
  37. Writing library                          : x264 core 157 r2969 d4099dd
  38. Encoding settings                        : cabac=1 / ref=4 / deblock=1:-1:-1 / analyse=0x1:0x111 / me=umh / subme=9 / psy=1 / psy_rd=1.00:0.15 / mixed_ref=1 / me_range=18 / chroma_me=1 / trellis=2 / 8x8dct=0 / cqm=0 / deadzone=21,11 / fast_pskip=1 / chroma_qp_offset=-3 / threads=18 / lookahead_threads=1 / sliced_threads=0 / nr=1000 / decimate=1 / interlaced=0 / bluray_compat=0 / constrained_intra=0 / bframes=3 / b_pyramid=2 / b_adapt=1 / b_bias=0 / direct=3 / weightb=1 / open_gop=0 / weightp=2 / keyint=240 / keyint_min=23 / scenecut=40 / intra_refresh=0 / rc_lookahead=50 / rc=2pass / mbtree=1 / bitrate=5000 / ratetol=1.0 / qcomp=0.60 / qpmin=0 / qpmax=69 / qpstep=4 / cplxblur=20.0 / qblur=0.5 / vbv_maxrate=50000 / vbv_bufsize=62500 / nal_hrd=none / filler=0 / ip_ratio=1.40 / aq=1:1.00
  39. Language                                 : English
  40. Default                                  : Yes
  41. Forced                                   : Yes
  42. Color range                              : Limited
  43. Color primaries                          : Generic film
  44. Transfer characteristics                 : BT.709
  45. Matrix coefficients                      : BT.709
  46. Duration_Source                          : General_Duration
  47.  
  48. Audio #1
  49. ID                                       : 2
  50. Format                                   : AC-3
  51. Format/Info                              : Audio Coding 3
  52. Commercial name                          : Dolby Digital
  53. Codec ID                                 : A_AC3
  54. Duration                                 : 1 h 54 min
  55. Bit rate mode                            : Constant
  56. Bit rate                                 : 640 kb/s
  57. Channel(s)                               : 6 channels
  58. Channel layout                           : L R C LFE Ls Rs
  59. Sampling rate                            : 48.0 kHz
  60. Frame rate                               : 31.250 FPS (1536 SPF)
  61. Compression mode                         : Lossy
  62. Delay relative to video                  : 8 ms
  63. Stream size                              : 524 MiB (10%)
  64. Title                                    : LustMovies.pro
  65. Language                                 : Hindi
  66. Service kind                             : Complete Main
  67. Default                                  : Yes
  68. Forced                                   : Yes
  69. Duration_Source                          : General_Duration
  70.  
  71. Audio #2
  72. ID                                       : 3
  73. Format                                   : AC-3
  74. Format/Info                              : Audio Coding 3
  75. Commercial name                          : Dolby Digital
  76. Codec ID                                 : A_AC3
  77. Duration                                 : 1 h 54 min
  78. Bit rate mode                            : Constant
  79. Bit rate                                 : 640 kb/s
  80. Channel(s)                               : 6 channels
  81. Channel layout                           : L R C LFE Ls Rs
  82. Sampling rate                            : 48.0 kHz
  83. Frame rate                               : 31.250 FPS (1536 SPF)
  84. Compression mode                         : Lossy
  85. Stream size                              : 524 MiB (10%)
  86. Title                                    : LustMovies.pro
  87. Language                                 : English
  88. Service kind                             : Complete Main
  89. Default                                  : No
  90. Forced                                   : No
  91. Duration_Source                          : General_Duration
  92.  
  93. Text #1
  94. ID                                       : 4
  95. Format                                   : PGS
  96. Muxing mode                              : zlib
  97. Codec ID                                 : S_HDMV/PGS
  98. Codec ID/Info                            : Picture based subtitle format used on BDs/HD-DVDs
  99. Title                                    : LustMovies.pro
  100. Language                                 : Hindi
  101. Default                                  : Yes
  102. Forced                                   : No
  103.  
  104. Text #2
  105. ID                                       : 5
  106. Format                                   : PGS
  107. Muxing mode                              : zlib
  108. Codec ID                                 : S_HDMV/PGS
  109. Codec ID/Info                            : Picture based subtitle format used on BDs/HD-DVDs
  110. Title                                    : LustMovies.pro
  111. Language                                 : Hindi
  112. Default                                  : No
  113. Forced                                   : No
  114.  
  115. Text #3
  116. ID                                       : 6
  117. Format                                   : PGS
  118. Muxing mode                              : zlib
  119. Codec ID                                 : S_HDMV/PGS
  120. Codec ID/Info                            : Picture based subtitle format used on BDs/HD-DVDs
  121. Title                                    : LustMovies.pro
  122. Language                                 : English
  123. Default                                  : No
  124. Forced                                   : No
  125.  
  126. General
  127. Unique ID                                : 234885448645182020851555326510756713639 (0xB0B54ABA4382636D2EFE17B6C3EED4A7)
  128. Complete name                            : Daylight 1996 720p BluRay x264 (Hindi DD 5.1 + English DD 5.1) ~LustMovies.pro~ (1.2 G).mkv
  129. Format                                   : Matroska
  130. Format version                           : Version 4
  131. File size                                : 1.20 GiB
  132. Duration                                 : 1 h 54 min
  133. Overall bit rate                         : 1 503 kb/s
  134. Movie name                               : LustMovies.pro | Daylight 1996
  135. Encoded date                             : UTC 2020-09-16 13:12:29
  136. Writing application                      : HandBrake 1.2.1 2019021900
  137. Writing library                          : Lavf58.20.100
  138. ErrorDetectionType                       : Per level 1
  139.  
  140. Video
  141. ID                                       : 1
  142. Format                                   : AVC
  143. Format/Info                              : Advanced Video Codec
  144. Format profile                           : [email protected]
  145. Format settings                          : CABAC / 4 Ref Frames
  146. Format settings, CABAC                   : Yes
  147. Format settings, Reference frames        : 4 frames
  148. Codec ID                                 : V_MPEG4/ISO/AVC
  149. Duration                                 : 1 h 54 min
  150. Bit rate                                 : 1 000 kb/s
  151. Width                                    : 1 280 pixels
  152. Height                                   : 694 pixels
  153. Display aspect ratio                     : 1.85:1
  154. Frame rate mode                          : Constant
  155. Frame rate                               : 23.976 (24000/1001) FPS
  156. Color space                              : YUV
  157. Chroma subsampling                       : 4:2:0
  158. Bit depth                                : 8 bits
  159. Scan type                                : Progressive
  160. Bits/(Pixel*Frame)                       : 0.047
  161. Stream size                              : 839 MiB (68%)
  162. Title                                    : LustMovies.pro
  163. Writing library                          : x264 core 152 r2854 e9a5903
  164. Encoding settings                        : cabac=1 / ref=1 / deblock=1:-1:-1 / analyse=0x3:0x113 / me=hex / subme=2 / psy=1 / psy_rd=1.00:0.15 / mixed_ref=0 / me_range=16 / chroma_me=1 / trellis=0 / 8x8dct=1 / cqm=0 / deadzone=21,11 / fast_pskip=1 / chroma_qp_offset=0 / threads=22 / lookahead_threads=5 / sliced_threads=0 / nr=0 / decimate=1 / interlaced=0 / bluray_compat=0 / constrained_intra=0 / bframes=3 / b_pyramid=2 / b_adapt=1 / b_bias=0 / direct=1 / weightb=1 / open_gop=0 / weightp=1 / keyint=240 / keyint_min=24 / scenecut=40 / intra_refresh=0 / rc_lookahead=10 / rc=abr / mbtree=1 / bitrate=1000 / ratetol=1.0 / qcomp=0.60 / qpmin=0 / qpmax=69 / qpstep=4 / vbv_maxrate=17500 / vbv_bufsize=17500 / nal_hrd=none / filler=0 / ip_ratio=1.40 / aq=1:1.00
  165. Default                                  : Yes
  166. Forced                                   : No
  167. Color range                              : Limited
  168. Color primaries                          : BT.709
  169. Transfer characteristics                 : BT.709
  170. Matrix coefficients                      : BT.709
  171. Duration_Source                          : General_Duration
  172.  
  173. Audio #1
  174. ID                                       : 2
  175. Format                                   : AC-3
  176. Format/Info                              : Audio Coding 3
  177. Commercial name                          : Dolby Digital
  178. Codec ID                                 : A_AC3
  179. Duration                                 : 1 h 54 min
  180. Bit rate mode                            : Constant
  181. Bit rate                                 : 224 kb/s
  182. Channel(s)                               : 6 channels
  183. Channel layout                           : L R C LFE Ls Rs
  184. Sampling rate                            : 48.0 kHz
  185. Frame rate                               : 31.250 FPS (1536 SPF)
  186. Compression mode                         : Lossy
  187. Delay relative to video                  : 3 ms
  188. Stream size                              : 183 MiB (15%)
  189. Title                                    : LustMovies.pro
  190. Language                                 : Hindi
  191. Service kind                             : Complete Main
  192. Default                                  : Yes
  193. Forced                                   : No
  194. Duration_Source                          : General_Duration
  195.  
  196. Audio #2
  197. ID                                       : 3
  198. Format                                   : AC-3
  199. Format/Info                              : Audio Coding 3
  200. Commercial name                          : Dolby Digital
  201. Codec ID                                 : A_AC3
  202. Duration                                 : 1 h 54 min
  203. Bit rate mode                            : Constant
  204. Bit rate                                 : 224 kb/s
  205. Channel(s)                               : 6 channels
  206. Channel layout                           : L R C LFE Ls Rs
  207. Sampling rate                            : 48.0 kHz
  208. Frame rate                               : 31.250 FPS (1536 SPF)
  209. Compression mode                         : Lossy
  210. Delay relative to video                  : -5 ms
  211. Stream size                              : 183 MiB (15%)
  212. Title                                    : LustMovies.pro
  213. Language                                 : English
  214. Service kind                             : Complete Main
  215. Default                                  : No
  216. Forced                                   : No
  217. Duration_Source                          : General_Duration
  218.  
  219. Text #1
  220. ID                                       : 4
  221. Format                                   : PGS
  222. Codec ID                                 : S_HDMV/PGS
  223. Codec ID/Info                            : Picture based subtitle format used on BDs/HD-DVDs
  224. Title                                    : LustMovies.pro
  225. Language                                 : English
  226. Default                                  : No
  227. Forced                                   : No
  228.  
  229. Text #2
  230. ID                                       : 5
  231. Format                                   : PGS
  232. Codec ID                                 : S_HDMV/PGS
  233. Codec ID/Info                            : Picture based subtitle format used on BDs/HD-DVDs
  234. Title                                    : LustMovies.pro
  235. Language                                 : Hindi
  236. Default                                  : Yes
  237. Forced                                   : Yes
  238.  
  239. Text #3
  240. ID                                       : 6
  241. Format                                   : PGS
  242. Codec ID                                 : S_HDMV/PGS
  243. Codec ID/Info                            : Picture based subtitle format used on BDs/HD-DVDs
  244. Title                                    : LustMovies.pro
  245. Language                                 : Hindi
  246. Default                                  : No
  247. Forced                                   : No
  248.  
  249. General
  250. Unique ID                                : 322503214285775920534084867509512536838 (0xF29FDC18EE3C78B949A7182C460F8306)
  251. Complete name                            : Daylight 1996 480p BluRay x264 (Hindi DD 2.0 + English DD 2.0) ~LustMovies.pro~ (575.8 M).mkv
  252. Format                                   : Matroska
  253. Format version                           : Version 4
  254. File size                                : 576 MiB
  255. Duration                                 : 1 h 54 min
  256. Overall bit rate                         : 703 kb/s
  257. Movie name                               : LustMovies.pro | Daylight 1996
  258. Encoded date                             : UTC 2020-09-16 13:50:15
  259. Writing application                      : HandBrake 1.2.1 2019021900
  260. Writing library                          : Lavf58.20.100
  261. ErrorDetectionType                       : Per level 1
  262.  
  263. Video
  264. ID                                       : 1
  265. Format                                   : AVC
  266. Format/Info                              : Advanced Video Codec
  267. Format profile                           : [email protected]
  268. Format settings                          : CABAC / 4 Ref Frames
  269. Format settings, CABAC                   : Yes
  270. Format settings, Reference frames        : 4 frames
  271. Codec ID                                 : V_MPEG4/ISO/AVC
  272. Duration                                 : 1 h 54 min
  273. Bit rate                                 : 497 kb/s
  274. Nominal bit rate                         : 450 kb/s
  275. Width                                    : 720 pixels
  276. Height                                   : 390 pixels
  277. Display aspect ratio                     : 1.85:1
  278. Frame rate mode                          : Constant
  279. Frame rate                               : 23.976 (24000/1001) FPS
  280. Color space                              : YUV
  281. Chroma subsampling                       : 4:2:0
  282. Bit depth                                : 8 bits
  283. Scan type                                : Progressive
  284. Bits/(Pixel*Frame)                       : 0.074
  285. Stream size                              : 407 MiB (71%)
  286. Title                                    : LustMovies.pro
  287. Writing library                          : x264 core 152 r2854 e9a5903
  288. Encoding settings                        : cabac=1 / ref=1 / deblock=1:-1:-1 / analyse=0x3:0x113 / me=hex / subme=2 / psy=1 / psy_rd=1.00:0.15 / mixed_ref=0 / me_range=16 / chroma_me=1 / trellis=0 / 8x8dct=1 / cqm=0 / deadzone=21,11 / fast_pskip=1 / chroma_qp_offset=0 / threads=12 / lookahead_threads=3 / sliced_threads=0 / nr=0 / decimate=1 / interlaced=0 / bluray_compat=0 / constrained_intra=0 / bframes=3 / b_pyramid=2 / b_adapt=1 / b_bias=0 / direct=1 / weightb=1 / open_gop=0 / weightp=1 / keyint=240 / keyint_min=24 / scenecut=40 / intra_refresh=0 / rc_lookahead=10 / rc=abr / mbtree=1 / bitrate=450 / ratetol=1.0 / qcomp=0.60 / qpmin=0 / qpmax=69 / qpstep=4 / vbv_maxrate=17500 / vbv_bufsize=17500 / nal_hrd=none / filler=0 / ip_ratio=1.40 / aq=1:1.00
  289. Default                                  : Yes
  290. Forced                                   : No
  291. Color range                              : Limited
  292. Color primaries                          : BT.709
  293. Transfer characteristics                 : BT.709
  294. Matrix coefficients                      : BT.709
  295. Duration_Source                          : General_Duration
  296.  
  297. Audio #1
  298. ID                                       : 2
  299. Format                                   : AC-3
  300. Format/Info                              : Audio Coding 3
  301. Commercial name                          : Dolby Digital
  302. Codec ID                                 : A_AC3
  303. Duration                                 : 1 h 54 min
  304. Bit rate mode                            : Constant
  305. Bit rate                                 : 96.0 kb/s
  306. Channel(s)                               : 2 channels
  307. Channel layout                           : L R
  308. Sampling rate                            : 48.0 kHz
  309. Frame rate                               : 31.250 FPS (1536 SPF)
  310. Compression mode                         : Lossy
  311. Delay relative to video                  : 3 ms
  312. Stream size                              : 78.6 MiB (14%)
  313. Title                                    : LustMovies.pro
  314. Language                                 : Hindi
  315. Service kind                             : Complete Main
  316. Default                                  : Yes
  317. Forced                                   : No
  318. Duration_Source                          : General_Duration
  319.  
  320. Audio #2
  321. ID                                       : 3
  322. Format                                   : AC-3
  323. Format/Info                              : Audio Coding 3
  324. Commercial name                          : Dolby Digital
  325. Codec ID                                 : A_AC3
  326. Duration                                 : 1 h 54 min
  327. Bit rate mode                            : Constant
  328. Bit rate                                 : 96.0 kb/s
  329. Channel(s)                               : 2 channels
  330. Channel layout                           : L R
  331. Sampling rate                            : 48.0 kHz
  332. Frame rate                               : 31.250 FPS (1536 SPF)
  333. Compression mode                         : Lossy
  334. Delay relative to video                  : -5 ms
  335. Stream size                              : 78.6 MiB (14%)
  336. Title                                    : LustMovies.pro
  337. Language                                 : English
  338. Service kind                             : Complete Main
  339. Default                                  : No
  340. Forced                                   : No
  341. Duration_Source                          : General_Duration
  342.  
  343. Text #1
  344. ID                                       : 4
  345. Format                                   : PGS
  346. Codec ID                                 : S_HDMV/PGS
  347. Codec ID/Info                            : Picture based subtitle format used on BDs/HD-DVDs
  348. Title                                    : LustMovies.pro
  349. Language                                 : English
  350. Default                                  : No
  351. Forced                                   : No
  352.  
  353. Text #2
  354. ID                                       : 5
  355. Format                                   : PGS
  356. Codec ID                                 : S_HDMV/PGS
  357. Codec ID/Info                            : Picture based subtitle format used on BDs/HD-DVDs
  358. Title                                    : LustMovies.pro
  359. Language                                 : Hindi
  360. Default                                  : Yes
  361. Forced                                   : Yes
  362.  
  363. Text #3
  364. ID                                       : 6
  365. Format                                   : PGS
  366. Codec ID                                 : S_HDMV/PGS
  367. Codec ID/Info                            : Picture based subtitle format used on BDs/HD-DVDs
  368. Title                                    : LustMovies.pro
  369. Language                                 : Hindi
  370. Default                                  : No
  371. Forced                                   : No