The text below is selected, press Ctrl+C to copy to your clipboard. (⌘+C on Mac) No line numbers will be copied.
Monster House (2006) 720p

13th September 2020 07:42:23 AM | Views: 19
  1. Format                                   : Matroska
  2. Format version                           : Version 4
  3. File size                                : 1 014 MiB
  4. Duration                                 : 1 h 30 min
  5. Overall bit rate                         : 1 564 kb/s
  6. Movie name                               : Monster House (2006) 720p Bluray x264 Dual Audio [ Hindi DD2.0 + English DD5.1 ] ESub 1GB [www.MoviezAddiction.space]
  7. Encoded date                             : UTC 2020-09-13 05:29:27
  8. Writing application                      : mkvmerge v48.0.0 ('Fortress Around Your Heart') 64-bit
  9. Writing library                          : libebml v1.4.0 + libmatroska v1.6.0
  10.  
  11. Video
  12. ID                                       : 3
  13. Format                                   : AVC
  14. Format/Info                              : Advanced Video Codec
  15. Format profile                           : [email protected]
  16. Format settings                          : CABAC / 4 Ref Frames
  17. Format settings, CABAC                   : Yes
  18. Format settings, Reference frames        : 4 frames
  19. Codec ID                                 : V_MPEG4/ISO/AVC
  20. Duration                                 : 1 h 30 min
  21. Bit rate                                 : 1 150 kb/s
  22. Width                                    : 1 280 pixels
  23. Height                                   : 536 pixels
  24. Display aspect ratio                     : 2.40:1
  25. Frame rate mode                          : Constant
  26. Frame rate                               : 23.976 (24000/1001) FPS
  27. Color space                              : YUV
  28. Chroma subsampling                       : 4:2:0
  29. Bit depth                                : 8 bits
  30. Scan type                                : Progressive
  31. Bits/(Pixel*Frame)                       : 0.070
  32. Stream size                              : 744 MiB (73%)
  33. Title                                    : [www.MoviezAddiction.space]
  34. Writing library                          : x264 core 160 r3000 33f9e14
  35. Encoding settings                        : cabac=1 / ref=3 / deblock=1:0:0 / analyse=0x3:0x113 / me=hex / subme=7 / psy=1 / psy_rd=1.00:0.00 / mixed_ref=1 / me_range=16 / chroma_me=1 / trellis=1 / 8x8dct=1 / cqm=0 / deadzone=21,11 / fast_pskip=1 / chroma_qp_offset=-2 / threads=12 / lookahead_threads=2 / sliced_threads=0 / nr=0 / decimate=1 / interlaced=0 / bluray_compat=0 / constrained_intra=0 / bframes=3 / b_pyramid=2 / b_adapt=1 / b_bias=0 / direct=1 / weightb=1 / open_gop=0 / weightp=2 / keyint=250 / keyint_min=23 / scenecut=40 / intra_refresh=0 / rc_lookahead=40 / rc=2pass / mbtree=1 / bitrate=1150 / ratetol=1.0 / qcomp=0.60 / qpmin=0 / qpmax=69 / qpstep=4 / cplxblur=20.0 / qblur=0.5 / ip_ratio=1.40 / aq=1:1.00
  36. Default                                  : Yes
  37. Forced                                   : No
  38.  
  39. Audio #1
  40. ID                                       : 2
  41. Format                                   : AC-3
  42. Format/Info                              : Audio Coding 3
  43. Commercial name                          : Dolby Digital
  44. Codec ID                                 : A_AC3
  45. Duration                                 : 1 h 30 min
  46. Bit rate mode                            : Constant
  47. Bit rate                                 : 224 kb/s
  48. Channel(s)                               : 2 channels
  49. Channel layout                           : L R
  50. Sampling rate                            : 48.0 kHz
  51. Frame rate                               : 31.250 FPS (1536 SPF)
  52. Compression mode                         : Lossy
  53. Stream size                              : 145 MiB (14%)
  54. Title                                    : [www.MoviezAddiction.space]
  55. Language                                 : Hindi
  56. Service kind                             : Complete Main
  57. Default                                  : Yes
  58. Forced                                   : Yes
  59.  
  60. Audio #2
  61. ID                                       : 4
  62. Format                                   : AAC LC
  63. Format/Info                              : Advanced Audio Codec Low Complexity
  64. Codec ID                                 : A_AAC-2
  65. Duration                                 : 1 h 30 min
  66. Bit rate                                 : 192 kb/s
  67. Channel(s)                               : 6 channels
  68. Channel layout                           : C L R Ls Rs LFE
  69. Sampling rate                            : 48.0 kHz
  70. Frame rate                               : 46.875 FPS (1024 SPF)
  71. Compression mode                         : Lossy
  72. Stream size                              : 123 MiB (12%)
  73. Title                                    : [www.MoviezAddiction.space]
  74. Language                                 : English
  75. Default                                  : No
  76. Forced                                   : No
  77.  
  78. Text
  79. ID                                       : 1
  80. Format                                   : UTF-8
  81. Codec ID                                 : S_TEXT/UTF8
  82. Codec ID/Info                            : UTF-8 Plain Text
  83. Duration                                 : 1 h 28 min
  84. Bit rate                                 : 45 b/s
  85. Count of elements                        : 985
  86. Stream size                              : 29.2 KiB (0%)
  87. Title                                    : [www.MoviezAddiction.space]
  88. Language                                 : English
  89. Default                                  : Yes
  90. Forced                                   : Yes