The text below is selected, press Ctrl+C to copy to your clipboard. (⌘+C on Mac) No line numbers will be copied.
Damsel (2018) 1080p

28th June 2020 07:59:28 AM | Views: 15
  1. General
  2. Unique ID                                : 295514839886990007362157955247791155564 (0xDE52168197864A38396467E51AC8296C)
  3. Complete name                            : S:\Damsel (2018) Working\Damsel (2018) 1080p BluRay x264 Dual Audio [Hindi DD5.1 + English DD5.1] MSub - [Www.MoviezAddiction.Site].mkv
  4. Format                                   : Matroska
  5. Format version                           : Version 4
  6. File size                                : 2.68 GiB
  7. Duration                                 : 1 h 53 min
  8. Overall bit rate                         : 3 374 kb/s
  9. Movie name                               : Damsel (2018) 1080p BluRay x264 Dual Audio [Hindi DD5.1 + English DD5.1] MSub - [Www.MoviezAddiction.Site]
  10. Encoded date                             : UTC 2020-06-28 05:25:10
  11. Writing application                      : mkvmerge v47.0.0 ('Black Flag') 64-bit
  12. Writing library                          : libebml v1.3.10 + libmatroska v1.5.2
  13.  
  14. Video
  15. ID                                       : 1
  16. Format                                   : AVC
  17. Format/Info                              : Advanced Video Codec
  18. Format profile                           : [email protected]
  19. Format settings                          : CABAC / 4 Ref Frames
  20. Format settings, CABAC                   : Yes
  21. Format settings, Reference frames        : 4 frames
  22. Codec ID                                 : V_MPEG4/ISO/AVC
  23. Duration                                 : 1 h 53 min
  24. Bit rate                                 : 2 500 kb/s
  25. Width                                    : 1 920 pixels
  26. Height                                   : 808 pixels
  27. Display aspect ratio                     : 2.40:1
  28. Frame rate mode                          : Constant
  29. Frame rate                               : 23.976 (24000/1001) FPS
  30. Original frame rate                      : 23.976 (23976/1000) FPS
  31. Color space                              : YUV
  32. Chroma subsampling                       : 4:2:0
  33. Bit depth                                : 8 bits
  34. Scan type                                : Progressive
  35. Bits/(Pixel*Frame)                       : 0.067
  36. Stream size                              : 1.98 GiB (74%)
  37. Title                                    : [Www.MoviezAddiction.Site]
  38. Writing library                          : x264 core 152 r2851M ba24899
  39. Encoding settings                        : cabac=1 / ref=4 / deblock=1:-1:-1 / analyse=0x3:0x113 / me=umh / subme=9 / psy=1 / psy_rd=1.00:0.15 / mixed_ref=1 / me_range=24 / chroma_me=1 / trellis=2 / 8x8dct=1 / cqm=0 / deadzone=21,11 / fast_pskip=1 / chroma_qp_offset=-3 / threads=32 / lookahead_threads=4 / sliced_threads=0 / nr=0 / decimate=1 / interlaced=0 / bluray_compat=0 / constrained_intra=0 / bframes=3 / b_pyramid=2 / b_adapt=2 / b_bias=0 / direct=3 / weightb=1 / open_gop=0 / weightp=2 / keyint=250 / keyint_min=25 / scenecut=40 / intra_refresh=0 / rc_lookahead=50 / rc=2pass / mbtree=1 / bitrate=2500 / ratetol=1.0 / qcomp=0.60 / qpmin=0 / qpmax=69 / qpstep=4 / cplxblur=20.0 / qblur=0.5 / vbv_maxrate=31250 / vbv_bufsize=31250 / nal_hrd=none / filler=0 / ip_ratio=1.40 / aq=3:1.00
  40. Default                                  : Yes
  41. Forced                                   : No
  42.  
  43. Audio #1
  44. ID                                       : 2
  45. Format                                   : AAC LC
  46. Format/Info                              : Advanced Audio Codec Low Complexity
  47. Codec ID                                 : A_AAC-2
  48. Duration                                 : 1 h 53 min
  49. Bit rate                                 : 224 kb/s
  50. Channel(s)                               : 6 channels
  51. Channel layout                           : C L R Ls Rs LFE
  52. Sampling rate                            : 48.0 kHz
  53. Frame rate                               : 46.875 FPS (1024 SPF)
  54. Compression mode                         : Lossy
  55. Delay relative to video                  : -43 ms
  56. Stream size                              : 182 MiB (7%)
  57. Title                                    : [Www.MoviezAddiction.Site]
  58. Language                                 : English
  59. Default                                  : Yes
  60. Forced                                   : No
  61.  
  62. Audio #2
  63. ID                                       : 3
  64. Format                                   : E-AC-3
  65. Format/Info                              : Enhanced AC-3
  66. Commercial name                          : Dolby Digital Plus
  67. Codec ID                                 : A_EAC3
  68. Duration                                 : 1 h 53 min
  69. Bit rate mode                            : Constant
  70. Bit rate                                 : 640 kb/s
  71. Channel(s)                               : 6 channels
  72. Channel layout                           : L R C LFE Ls Rs
  73. Sampling rate                            : 48.0 kHz
  74. Frame rate                               : 31.250 FPS (1536 SPF)
  75. Compression mode                         : Lossy
  76. Delay relative to video                  : -37 ms
  77. Stream size                              : 520 MiB (19%)
  78. Title                                    : [Www.MoviezAddiction.Site]
  79. Language                                 : Hindi
  80. Service kind                             : Complete Main
  81. Default                                  : No
  82. Forced                                   : No
  83.  
  84. Text #1
  85. ID                                       : 4
  86. Format                                   : PGS
  87. Muxing mode                              : zlib
  88. Codec ID                                 : S_HDMV/PGS
  89. Codec ID/Info                            : Picture based subtitle format used on BDs/HD-DVDs
  90. Duration                                 : 1 h 51 min
  91. Bit rate                                 : 14.9 kb/s
  92. Count of elements                        : 1822
  93. Stream size                              : 11.9 MiB (0%)
  94. Title                                    : [Www.MoviezAddiction.Site]
  95. Language                                 : Hindi
  96. Default                                  : Yes
  97. Forced                                   : No
  98.  
  99. Text #2
  100. ID                                       : 5
  101. Format                                   : UTF-8
  102. Codec ID                                 : S_TEXT/UTF8
  103. Codec ID/Info                            : UTF-8 Plain Text
  104. Duration                                 : 1 h 48 min
  105. Bit rate                                 : 34 b/s
  106. Count of elements                        : 916
  107. Stream size                              : 27.2 KiB (0%)
  108. Title                                    : [Www.MoviezAddiction.Site]
  109. Language                                 : English
  110. Default                                  : No
  111. Forced                                   : No