The text below is selected, press Ctrl+C to copy to your clipboard. (⌘+C on Mac) No line numbers will be copied.
Mrs. Harris Goes to Paris...

19th January 2023 02:42:16 AM | Views: 5
  1. Format                                   : Matroska
  2. Format version                           : Version 4
  3. File size                                : 31.3 GiB
  4. Duration                                 : 1 h 55 min
  5. Overall bit rate mode                    : Variable
  6. Overall bit rate                         : 38.6 Mb/s
  7. Movie name                               : Mrs. Harris Goes to Paris (2022) 1080p BluRay REMUX x264 Dual Audio [Hindi DDP5.1 + English DTS-HD MA 5.1] ESub 31.2GB [MoviezAddiction]
  8. Encoded date                             : UTC 2023-01-18 13:55:13
  9. Writing application                      : mkvmerge v72.0.0 ('Minuano (Six-eight)') 64-bit
  10. Writing library                          : libebml v1.4.4 + libmatroska v1.7.1
  11.  
  12. Video
  13. ID                                       : 1
  14. Format                                   : AVC
  15. Format/Info                              : Advanced Video Codec
  16. Format profile                           : [email protected]
  17. Format settings                          : CABAC / 4 Ref Frames
  18. Format settings, CABAC                   : Yes
  19. Format settings, Reference frames        : 4 frames
  20. Codec ID                                 : V_MPEG4/ISO/AVC
  21. Duration                                 : 1 h 55 min
  22. Bit rate mode                            : Variable
  23. Bit rate                                 : 34.7 Mb/s
  24. Maximum bit rate                         : 38.0 Mb/s
  25. Width                                    : 1 920 pixels
  26. Height                                   : 1 080 pixels
  27. Display aspect ratio                     : 16:9
  28. Frame rate mode                          : Constant
  29. Frame rate                               : 23.976 (24000/1001) FPS
  30. Color space                              : YUV
  31. Chroma subsampling                       : 4:2:0
  32. Bit depth                                : 8 bits
  33. Scan type                                : Progressive
  34. Bits/(Pixel*Frame)                       : 0.697
  35. Stream size                              : 28.0 GiB (90%)
  36. Default                                  : Yes
  37. Forced                                   : No
  38.  
  39. Audio #1
  40. ID                                       : 2
  41. Format                                   : E-AC-3
  42. Format/Info                              : Enhanced AC-3
  43. Commercial name                          : Dolby Digital Plus
  44. Codec ID                                 : A_EAC3
  45. Duration                                 : 1 h 55 min
  46. Bit rate mode                            : Constant
  47. Bit rate                                 : 640 kb/s
  48. Channel(s)                               : 6 channels
  49. Channel layout                           : L R C LFE Ls Rs
  50. Sampling rate                            : 48.0 kHz
  51. Frame rate                               : 31.250 FPS (1536 SPF)
  52. Compression mode                         : Lossy
  53. Delay relative to video                  : -24 s 361 ms
  54. Stream size                              : 531 MiB (2%)
  55. Title                                    : Hindi
  56. Language                                 : Hindi
  57. Service kind                             : Complete Main
  58. Default                                  : Yes
  59. Forced                                   : No
  60.  
  61. Audio #2
  62. ID                                       : 3
  63. Format                                   : DTS XLL
  64. Format/Info                              : Digital Theater Systems
  65. Commercial name                          : DTS-HD Master Audio
  66. Codec ID                                 : A_DTS
  67. Duration                                 : 1 h 55 min
  68. Bit rate mode                            : Variable
  69. Bit rate                                 : 3 374 kb/s
  70. Channel(s)                               : 6 channels
  71. Channel layout                           : C L R Ls Rs LFE
  72. Sampling rate                            : 48.0 kHz
  73. Frame rate                               : 93.750 FPS (512 SPF)
  74. Bit depth                                : 24 bits
  75. Compression mode                         : Lossless
  76. Stream size                              : 2.72 GiB (9%)
  77. Title                                    : English
  78. Language                                 : English
  79. Default                                  : No
  80. Forced                                   : No
  81.  
  82. Text
  83. ID                                       : 4
  84. Format                                   : PGS
  85. Codec ID                                 : S_HDMV/PGS
  86. Codec ID/Info                            : Picture based subtitle format used on BDs/HD-DVDs
  87. Duration                                 : 1 h 48 min
  88. Bit rate                                 : 37.6 kb/s
  89. Frame rate                               : 0.476 FPS
  90. Count of elements                        : 3110
  91. Stream size                              : 29.3 MiB (0%)
  92. Title                                    : English [PGS]
  93. Language                                 : English
  94. Default                                  : Yes
  95. Forced                                   : No
  96.  
  97. Menu
  98. 00:00:24.361                             : Chapter 01
  99. 00:09:15.225                             : Chapter 02
  100. 00:16:03.466                             : Chapter 03
  101. 00:21:06.268                             : Chapter 04
  102. 00:25:43.587                             : Chapter 05
  103. 00:33:11.243                             : Chapter 06
  104. 00:39:29.370                             : Chapter 07
  105. 00:49:41.607                             : Chapter 08
  106. 00:55:52.185                             : Chapter 09
  107. 00:59:27.442                             : Chapter 10
  108. 01:04:37.377                             : Chapter 11
  109. 01:10:30.146                             : Chapter 12
  110. 01:16:57.158                             : Chapter 13
  111. 01:21:06.198                             : Chapter 14
  112. 01:25:45.060                             : Chapter 15
  113. 01:31:52.552                             : Chapter 16
  114. 01:36:37.754                             : Chapter 17
  115. 01:43:27.538                             : Chapter 18
  116. 01:46:49.073                             : Chapter 19
  117. 01:50:34.423                             : Chapter 20