The text below is selected, press Ctrl+C to copy to your clipboard. (⌘+C on Mac) No line numbers will be copied.
MoviezAddiction.Casa | Indiana Jones and...

10th June 2021 08:21:24 AM | Views: 26
  1. General
  2. Unique ID                                : 134515722338244314351904325320209971458 (0x6532C927D7E1EB8C4BC17D2A36DDB902)
  3. Complete name                            : F:\MoviezAddiction.Casa | Indiana Jones and the Temple of Doom (1984) 720p UHD BluRay x264 HE-AAC ESub Dual Audio [Hindi DD 5.1CH + English] 1.40GB
  4. Format                                   : Matroska
  5. Format version                           : Version 4
  6. File size                                : 1.40 GiB
  7. Duration                                 : 1 h 58 min
  8. Overall bit rate                         : 1 691 kb/s
  9. Movie name                               : MoviezAddiction.Casa | Indiana Jones and the Temple of Doom (1984) 720p UHD BluRay x264 HE-AAC ESub Dual Audio [Hindi DD 5.1CH + English] 1.40GB
  10. Encoded date                             : UTC 2021-06-10 04:54:56
  11. Writing application                      : mkvmerge v47.0.0 ('Black Flag') 64-bit
  12. Writing library                          : libebml v1.3.10 + libmatroska v1.5.2
  13.  
  14. Video
  15. ID                                       : 2
  16. Format                                   : AVC
  17. Format/Info                              : Advanced Video Codec
  18. Format profile                           : [email protected]
  19. Format settings                          : CABAC / 8 Ref Frames
  20. Format settings, CABAC                   : Yes
  21. Format settings, RefFrames               : 8 frames
  22. Codec ID                                 : V_MPEG4/ISO/AVC
  23. Duration                                 : 1 h 58 min
  24. Bit rate                                 : 1 202 kb/s
  25. Width                                    : 1 280 pixels
  26. Height                                   : 544 pixels
  27. Display aspect ratio                     : 2.35:1
  28. Frame rate mode                          : Constant
  29. Frame rate                               : 23.976 (24000/1001) FPS
  30. Color space                              : YUV
  31. Chroma subsampling                       : 4:2:0
  32. Bit depth                                : 8 bits
  33. Scan type                                : Progressive
  34. Bits/(Pixel*Frame)                       : 0.072
  35. Stream size                              : 1 018 MiB (71%)
  36. Title                                    : MoviezAddiction.Casa
  37. Writing library                          : x264 core 155 r2901 7d0ff22
  38. Encoding settings                        : cabac=1 / ref=8 / deblock=1:-2:-2 / analyse=0x3:0x133 / me=umh / subme=10 / psy=1 / psy_rd=1.00:0.15 / mixed_ref=1 / me_range=32 / chroma_me=1 / trellis=2 / 8x8dct=1 / cqm=0 / deadzone=21,11 / fast_pskip=1 / chroma_qp_offset=-3 / threads=17 / lookahead_threads=1 / sliced_threads=0 / nr=0 / decimate=1 / interlaced=0 / bluray_compat=0 / constrained_intra=0 / bframes=3 / b_pyramid=2 / b_adapt=2 / b_bias=0 / direct=3 / weightb=1 / open_gop=0 / weightp=2 / keyint=250 / keyint_min=23 / scenecut=40 / intra_refresh=0 / rc_lookahead=60 / rc=crf / mbtree=1 / crf=25.5 / qcomp=0.60 / qpmin=0 / qpmax=69 / qpstep=4 / vbv_maxrate=15500 / vbv_bufsize=16000 / crf_max=0.0 / nal_hrd=none / filler=0 / ip_ratio=1.40 / aq=1:0.80
  39. Language                                 : English
  40. Default                                  : Yes
  41. Forced                                   : Yes
  42.  
  43. Audio #1
  44. ID                                       : 1
  45. Format                                   : AAC LC SBR
  46. Format/Info                              : Advanced Audio Codec Low Complexity with Spectral Band Replication
  47. Commercial name                          : HE-AAC
  48. Format settings                          : Explicit
  49. Codec ID                                 : A_AAC-2
  50. Duration                                 : 1 h 58 min
  51. Bit rate                                 : 192 kb/s
  52. Channel(s)                               : 6 channels
  53. Channel layout                           : C L R Ls Rs LFE
  54. Sampling rate                            : 48.0 kHz
  55. Frame rate                               : 23.438 FPS (2048 SPF)
  56. Compression mode                         : Lossy
  57. Delay relative to video                  : 17 ms
  58. Stream size                              : 163 MiB (11%)
  59. Title                                    : MoviezAddiction.Casa
  60. Language                                 : Hindi
  61. Default                                  : Yes
  62. Forced                                   : Yes
  63.  
  64. Audio #2
  65. ID                                       : 3
  66. Format                                   : AAC LC
  67. Format/Info                              : Advanced Audio Codec Low Complexity
  68. Codec ID                                 : A_AAC-2
  69. Duration                                 : 1 h 58 min
  70. Bit rate                                 : 288 kb/s
  71. Channel(s)                               : 6 channels
  72. Channel layout                           : C L R Ls Rs LFE
  73. Sampling rate                            : 48.0 kHz
  74. Frame rate                               : 46.875 FPS (1024 SPF)
  75. Compression mode                         : Lossy
  76. Delay relative to video                  : 9 ms
  77. Stream size                              : 247 MiB (17%)
  78. Title                                    : MoviezAddiction.Casa
  79. Language                                 : English
  80. Default                                  : No
  81. Forced                                   : Yes
  82.  
  83. Text #1
  84. ID                                       : 4
  85. Format                                   : UTF-8
  86. Codec ID                                 : S_TEXT/UTF8
  87. Codec ID/Info                            : UTF-8 Plain Text
  88. Duration                                 : 1 h 52 min
  89. Bit rate                                 : 27 b/s
  90. Count of elements                        : 863
  91. Stream size                              : 22.5 KiB (0%)
  92. Title                                    : MoviezAddiction.Casa
  93. Language                                 : English
  94. Default                                  : Yes
  95. Forced                                   : Yes
  96.  
  97. Text #2
  98. ID                                       : 5
  99. Format                                   : PGS
  100. Muxing mode                              : zlib
  101. Codec ID                                 : S_HDMV/PGS
  102. Codec ID/Info                            : Picture based subtitle format used on BDs/HD-DVDs
  103. Duration                                 : 1 h 52 min
  104. Bit rate                                 : 17.7 kb/s
  105. Count of elements                        : 1734
  106. Stream size                              : 14.2 MiB (1%)
  107. Title                                    : MoviezAddiction.Casa
  108. Language                                 : English
  109. Default                                  : No
  110. Forced                                   : Yes