The text below is selected, press Ctrl+C to copy to your clipboard. (⌘+C on Mac) No line numbers will be copied.
The Royal Treatment (2022) 720p

21st January 2022 04:07:39 AM | Views: 51
  1. Format                                   : Matroska
  2. Format version                           : Version 4
  3. File size                                : 1.01 GiB
  4. Duration                                 : 1 h 37 min
  5. Overall bit rate                         : 1 483 kb/s
  6. Movie name                               : The Royal Treatment (2022) 720p WEB-DL x264 Dual Audio [Hindi DD5.1 + English DD5.1] ESub 1.00GB [www.MoviezAddiction.art]
  7. Encoded date                             : UTC 2022-01-20 14:15:52
  8. Writing application                      : mkvmerge v47.0.0 ('Black Flag') 64-bit
  9. Writing library                          : libebml v1.3.10 + libmatroska v1.5.2
  10.  
  11. Video
  12. ID                                       : 1
  13. Format                                   : AVC
  14. Format/Info                              : Advanced Video Codec
  15. Format profile                           : [email protected]
  16. Format settings                          : CABAC / 4 Ref Frames
  17. Format settings, CABAC                   : Yes
  18. Format settings, Reference frames        : 4 frames
  19. Codec ID                                 : V_MPEG4/ISO/AVC
  20. Duration                                 : 1 h 37 min
  21. Bit rate                                 : 1 099 kb/s
  22. Width                                    : 1 280 pixels
  23. Height                                   : 582 pixels
  24. Display aspect ratio                     : 2.2:1
  25. Original display aspect ratio            : 2.2:1
  26. Frame rate mode                          : Variable
  27. Frame rate                               : 24.000 FPS
  28. Color space                              : YUV
  29. Chroma subsampling                       : 4:2:0
  30. Bit depth                                : 8 bits
  31. Scan type                                : Progressive
  32. Bits/(Pixel*Frame)                       : 0.061
  33. Stream size                              : 766 MiB (74%)
  34. Title                                    : [www.MoviezAddiction.art]
  35. Default                                  : Yes
  36. Forced                                   : No
  37.  
  38. Audio #1
  39. ID                                       : 2
  40. Format                                   : AAC LC SBR
  41. Format/Info                              : Advanced Audio Codec Low Complexity with Spectral Band Replication
  42. Commercial name                          : HE-AAC
  43. Format settings                          : Explicit
  44. Codec ID                                 : A_AAC-2
  45. Duration                                 : 1 h 37 min
  46. Bit rate                                 : 192 kb/s
  47. Channel(s)                               : 6 channels
  48. Channel layout                           : C L R Ls Rs LFE
  49. Sampling rate                            : 48.0 kHz
  50. Frame rate                               : 23.438 FPS (2048 SPF)
  51. Compression mode                         : Lossy
  52. Stream size                              : 133 MiB (13%)
  53. Title                                    : [www.MoviezAddiction.art] - Hindi
  54. Language                                 : Hindi
  55. Default                                  : Yes
  56. Forced                                   : No
  57.  
  58. Audio #2
  59. ID                                       : 3
  60. Format                                   : AAC LC SBR
  61. Format/Info                              : Advanced Audio Codec Low Complexity with Spectral Band Replication
  62. Commercial name                          : HE-AAC
  63. Format settings                          : Explicit
  64. Codec ID                                 : A_AAC-2
  65. Duration                                 : 1 h 37 min
  66. Bit rate                                 : 192 kb/s
  67. Channel(s)                               : 6 channels
  68. Channel layout                           : C L R Ls Rs LFE
  69. Sampling rate                            : 48.0 kHz
  70. Frame rate                               : 23.438 FPS (2048 SPF)
  71. Compression mode                         : Lossy
  72. Stream size                              : 133 MiB (13%)
  73. Title                                    : [www.MoviezAddiction.art] - English
  74. Language                                 : English
  75. Default                                  : No
  76. Forced                                   : No
  77.  
  78. Text
  79. ID                                       : 4
  80. Format                                   : UTF-8
  81. Codec ID                                 : S_TEXT/UTF8
  82. Codec ID/Info                            : UTF-8 Plain Text
  83. Duration                                 : 1 h 32 min
  84. Bit rate                                 : 105 b/s
  85. Count of elements                        : 1677
  86. Stream size                              : 71.0 KiB (0%)
  87. Title                                    : [www.MoviezAddiction.art] - English [SRT]
  88. Language                                 : English
  89. Default                                  : Yes
  90. Forced                                   : No