The text below is selected, press Ctrl+C to copy to your clipboard. (⌘+C on Mac) No line numbers will be copied.
MediaInfo

13th May 2019 05:35:44 AM | Views: 823
  1. Format                      : Matroska
  2. Format version              : Version 4
  3. File size                   : 1.70 GiB
  4. Duration                    : 1 h 20 min
  5. Overall bit rate            : 3 043 kb/s
  6. Movie name                  : Game.of.Thrones.S08E05.The.Bells.1080p.AMZN.WEB-DL.10bit.HEVC.6CH-MkvCage.ws
  7. Encoded date                : UTC 2019-05-13 05:33:27
  8. Writing application         : mkvmerge v32.0.0 ('Astral Progressions') 64-bit
  9. Writing library             : libebml v1.3.7 + libmatroska v1.5.0
  10.  
  11. Video
  12. ID                          : 1
  13. Format                      : HEVC
  14. Format/Info                 : High Efficiency Video Coding
  15. Format profile              : Main [email protected]@Main
  16. Codec ID                    : V_MPEGH/ISO/HEVC
  17. Duration                    : 1 h 20 min
  18. Bit rate                    : 2 785 kb/s
  19. Width                       : 1 920 pixels
  20. Height                      : 1 080 pixels
  21. Display aspect ratio        : 16:9
  22. Frame rate mode             : Constant
  23. Frame rate                  : 23.976 (24000/1001) FPS
  24. Color space                 : YUV
  25. Chroma subsampling          : 4:2:0
  26. Bit depth                   : 10 bits
  27. Bits/(Pixel*Frame)          : 0.056
  28. Stream size                 : 1.56 GiB (92%)
  29. Default                     : Yes
  30. Forced                      : No
  31.  
  32. Audio
  33. ID                          : 2
  34. Format                      : AAC LC SBR
  35. Format/Info                 : Advanced Audio Codec Low Complexity with Spectral Band Replication
  36. Commercial name             : HE-AAC
  37. Format settings             : Explicit
  38. Codec ID                    : A_AAC-2
  39. Duration                    : 1 h 20 min
  40. Bit rate                    : 256 kb/s
  41. Channel(s)                  : 6 channels
  42. Channel layout              : C L R Ls Rs LFE
  43. Sampling rate               : 48.0 kHz
  44. Frame rate                  : 23.438 FPS (2048 SPF)
  45. Compression mode            : Lossy
  46. Delay relative to video     : 16 ms
  47. Stream size                 : 147 MiB (8%)
  48. Language                    : English
  49. Default                     : Yes
  50. Forced                      : No
  51.  
  52. Text #1
  53. ID                          : 3
  54. Format                      : UTF-8
  55. Codec ID                    : S_TEXT/UTF8
  56. Codec ID/Info               : UTF-8 Plain Text
  57. Duration                    : 1 h 19 min
  58. Bit rate                    : 29 b/s
  59. Count of elements           : 739
  60. Stream size                 : 17.5 KiB (0%)
  61. Title                       : HI
  62. Language                    : English
  63. Default                     : Yes
  64. Forced                      : No
  65.  
  66. Text #2
  67. ID                          : 4
  68. Format                      : UTF-8
  69. Codec ID                    : S_TEXT/UTF8
  70. Codec ID/Info               : UTF-8 Plain Text
  71. Duration                    : 1 h 19 min
  72. Bit rate                    : 22 b/s
  73. Count of elements           : 514
  74. Stream size                 : 13.1 KiB (0%)
  75. Language                    : English
  76. Default                     : No
  77. Forced                      : No
  78.  
  79. Menu
  80. 00:00:00.000                : en:Stay Tuned
  81. 00:00:01.920                : en:Ratings
  82. 00:00:06.920                : en:Previously On
  83. 00:01:41.920                : en:Studio Logo
  84. 00:01:47.920                : en:Opening Credits
  85. 00:03:35.920                : en:The greater the risk, the greater the reward
  86. 00:05:08.920                : en:Betrayal must be dealt with accordingly
  87. 00:14:10.920                : en:Mercy is our strength
  88. 00:20:10.920                : en:Sail for a new life
  89. 00:28:11.920                : en:Preparing the city for battle
  90. 00:33:56.920                : en:The battle begins
  91. 00:39:08.920                : en:The red keep has never fallen
  92. 00:40:43.920                : en:Ring the bells
  93. 00:45:48.920                : en:Surrender means nothing
  94. 00:51:04.920                : en:Another one for the king-slayer
  95. 00:56:01.920                : en:The revenge game has no future
  96. 00:57:43.920                : en:The Clegane's reunite
  97. 01:07:56.920                : en:Jon makes a decision
  98. 01:08:56.920                : en:Death is everywhere
  99. 01:12:02.920                : en:Nothing else matters
  100. 01:14:28.920                : en:King's Landing burns
  101. 01:18:17.920                : en:End Credits
  102. 01:19:37.920                : en:Next Week
  103. 01:20:04.920                : en:Inside the Episode