The text below is selected, press Ctrl+C to copy to your clipboard. (⌘+C on Mac) No line numbers will be copied.
Snatch (2000) 2160p UHD BluRay...

21st January 2023 03:56:14 PM | Views: 6
  1. Format                                   : Matroska
  2. Format version                           : Version 4
  3. File size                                : 29.9 GiB
  4. Duration                                 : 1 h 42 min
  5. Overall bit rate mode                    : Variable
  6. Overall bit rate                         : 41.7 Mb/s
  7. Movie name                               : Snatch (2000) 2160p UHD BluRay x265 10bit HDR HEVC Dual Audio [Hindi DTH DD2.0 + English DTS-HD MA 7.1] ESub 29.9GB [MoviezAddiction]
  8. Encoded date                             : UTC 2023-01-21 13:19:56
  9. Writing application                      : mkvmerge v72.0.0 ('Minuano (Six-eight)') 64-bit
  10. Writing library                          : libebml v1.4.4 + libmatroska v1.7.1
  11.  
  12. Video
  13. ID                                       : 1
  14. Format                                   : HEVC
  15. Format/Info                              : High Efficiency Video Coding
  16. Format profile                           : Main [email protected]@High
  17. HDR format                               : SMPTE ST 2086, HDR10 compatible
  18. Codec ID                                 : V_MPEGH/ISO/HEVC
  19. Duration                                 : 1 h 42 min
  20. Bit rate                                 : 37.2 Mb/s
  21. Width                                    : 3 840 pixels
  22. Height                                   : 2 076 pixels
  23. Display aspect ratio                     : 1.85:1
  24. Frame rate mode                          : Constant
  25. Frame rate                               : 23.976 (24000/1001) FPS
  26. Color space                              : YUV
  27. Chroma subsampling                       : 4:2:0 (Type 2)
  28. Bit depth                                : 10 bits
  29. Bits/(Pixel*Frame)                       : 0.195
  30. Stream size                              : 26.7 GiB (89%)
  31. Default                                  : Yes
  32. Forced                                   : No
  33. Color range                              : Limited
  34. Color primaries                          : BT.2020
  35. Transfer characteristics                 : PQ
  36. Matrix coefficients                      : BT.2020 non-constant
  37. Mastering display color primaries        : Display P3
  38. Mastering display luminance              : min: 0.0050 cd/m2, max: 4000 cd/m2
  39. Maximum Content Light Level              : 1882 cd/m2
  40. Maximum Frame-Average Light Level        : 132 cd/m2
  41.  
  42. Audio #1
  43. ID                                       : 2
  44. Format                                   : AC-3
  45. Format/Info                              : Audio Coding 3
  46. Commercial name                          : Dolby Digital
  47. Codec ID                                 : A_AC3
  48. Duration                                 : 1 h 42 min
  49. Bit rate mode                            : Constant
  50. Bit rate                                 : 224 kb/s
  51. Channel(s)                               : 2 channels
  52. Channel layout                           : L R
  53. Sampling rate                            : 48.0 kHz
  54. Frame rate                               : 31.250 FPS (1536 SPF)
  55. Compression mode                         : Lossy
  56. Delay relative to video                  : -4 s 241 ms
  57. Stream size                              : 165 MiB (1%)
  58. Title                                    : Hindi
  59. Language                                 : Hindi
  60. Service kind                             : Complete Main
  61. Default                                  : Yes
  62. Forced                                   : No
  63.  
  64. Audio #2
  65. ID                                       : 3
  66. Format                                   : DTS XLL
  67. Format/Info                              : Digital Theater Systems
  68. Commercial name                          : DTS-HD Master Audio
  69. Codec ID                                 : A_DTS
  70. Duration                                 : 1 h 42 min
  71. Bit rate mode                            : Variable
  72. Bit rate                                 : 4 223 kb/s
  73. Channel(s)                               : 8 channels
  74. Channel layout                           : C L R LFE Lb Rb Lss Rss
  75. Sampling rate                            : 48.0 kHz
  76. Frame rate                               : 93.750 FPS (512 SPF)
  77. Bit depth                                : 24 bits
  78. Compression mode                         : Lossless
  79. Stream size                              : 3.03 GiB (10%)
  80. Title                                    : English
  81. Language                                 : English
  82. Default                                  : No
  83. Forced                                   : No
  84.  
  85. Text
  86. ID                                       : 4
  87. Format                                   : PGS
  88. Codec ID                                 : S_HDMV/PGS
  89. Codec ID/Info                            : Picture based subtitle format used on BDs/HD-DVDs
  90. Duration                                 : 1 h 38 min
  91. Bit rate                                 : 37.9 kb/s
  92. Count of elements                        : 2682
  93. Stream size                              : 26.7 MiB (0%)
  94. Title                                    : English [PGS}
  95. Language                                 : English
  96. Default                                  : Yes
  97. Forced                                   : No
  98.  
  99. Menu
  100. 00:00:04.241                             : en:Start
  101. 00:03:56.848                             : en:Diamond snatch
  102. 00:06:57.362                             : en:Turkish & Tommy
  103. 00:09:28.555                             : en:Brick Top
  104. 00:11:52.615                             : en:Boris & his brother
  105. 00:12:51.174                             : en:Avi
  106. 00:13:48.189                             : en:Dough the Head
  107. 00:16:30.810                             : en:Buying a caravan
  108. 00:20:20.039                             : en:Gypsy bare-knuckle champ
  109. 00:22:46.977                             : en:Sol
  110. 00:25:17.169                             : en:Tyrone & his getaway car
  111. 00:30:02.287                             : en:Replacement fighter
  112. 00:30:54.089                             : en:A dive in the fourth
  113. 00:36:27.005                             : en:All bets are off
  114. 00:39:39.030                             : en:One-punch Mickey
  115. 00:41:38.483                             : en:A problem
  116. 00:48:15.463                             : en:Mickey's offer
  117. 00:53:12.676                             : en:Not a bad moment?
  118. 00:59:05.362                             : en:Bullet-Tooth Tony
  119. 01:02:57.344                             : en:Brick Top's persuasion
  120. 01:07:46.174                             : en:A hard man to track down
  121. 01:09:13.219                             : en:All roads lead to Boris
  122. 01:13:23.594                             : en:Desert Eagle vs. Replica
  123. 01:16:11.095                             : en:Russian standoff
  124. 01:19:08.606                             : en:Predictability of stupidity
  125. 01:22:21.673                             : en:"Look in the dog."
  126. 01:28:11.648                             : en:"Do not knock him out."
  127. 01:33:57.410                             : en:Action & reaction
  128. 01:39:23.111                             : en:End Credits