The text below is selected, press Ctrl+C to copy to your clipboard. (⌘+C on Mac) No line numbers will be copied.
4

21st April 2019 10:49:44 AM | Views: 163
  1. ormat                                   : Matroska
  2. Format version                           : Version 2
  3. File size                                : 1.44 GiB
  4. Duration                                 : 1 h 57 min
  5. Overall bit rate                         : 1 763 kb/s
  6. Encoded date                             : UTC 2019-04-19 12:53:24
  7. Writing application                      : mkvmerge v5.7.0 ('The Whirlwind') built on Jul  8 2012 20:08:51
  8. Writing library                          : libebml v1.2.3 + libmatroska v1.3.0
  9.  
  10. Video
  11. ID                                       : 1
  12. Format                                   : AVC
  13. Format/Info                              : Advanced Video Codec
  14. Format profile                           : [email protected]
  15. Format settings                          : CABAC / 4 Ref Frames
  16. Format settings, CABAC                   : Yes
  17. Format settings, RefFrames               : 4 frames
  18. Muxing mode                              : Header stripping
  19. Codec ID                                 : V_MPEG4/ISO/AVC
  20. Duration                                 : 1 h 57 min
  21. Bit rate                                 : 1 381 kb/s
  22. Width                                    : 720 pixels
  23. Height                                   : 304 pixels
  24. Display aspect ratio                     : 2.35:1
  25. Frame rate mode                          : Constant
  26. Frame rate                               : 24.000 FPS
  27. Color space                              : YUV
  28. Chroma subsampling                       : 4:2:0
  29. Bit depth                                : 8 bits
  30. Scan type                                : Progressive
  31. Bits/(Pixel*Frame)                       : 0.263
  32. Stream size                              : 1.10 GiB (76%)
  33. Title                                    : Badla HDRip @ TmG
  34. Writing library                          : x264 core 146 r2538 121396c
  35. Encoding settings                        : cabac=1 / ref=4 / deblock=1:-2:-1 / analyse=0x3:0x113 / me=umh / subme=7 / psy=1 / psy_rd=1.00:0.00 / mixed_ref=1 / me_range=16 / chroma_me=1 / trellis=2 / 8x8dct=1 / cqm=0 / deadzone=21,11 / fast_pskip=1 / chroma_qp_offset=-2 / threads=12 / lookahead_threads=2 / sliced_threads=0 / nr=0 / decimate=1 / interlaced=0 / bluray_compat=0 / constrained_intra=0 / bframes=3 / b_pyramid=2 / b_adapt=2 / b_bias=0 / direct=3 / weightb=1 / open_gop=0 / weightp=0 / keyint=288 / keyint_min=23 / scenecut=40 / intra_refresh=0 / rc_lookahead=40 / rc=2pass / mbtree=1 / bitrate=1381 / ratetol=1.0 / qcomp=0.60 / qpmin=10 / qpmax=51 / qpstep=4 / cplxblur=20.0 / qblur=0.5 / vbv_maxrate=40000 / vbv_bufsize=40000 / nal_hrd=none / filler=0 / ip_ratio=1.40 / aq=1:1.00
  36. Language                                 : Hindi
  37. Default                                  : Yes
  38. Forced                                   : No
  39. Color range                              : Full
  40.  
  41. Audio
  42. ID                                       : 2
  43. Format                                   : AC-3
  44. Format/Info                              : Audio Coding 3
  45. Commercial name                          : Dolby Digital
  46. Muxing mode                              : Header stripping
  47. Codec ID                                 : A_AC3
  48. Duration                                 : 1 h 57 min
  49. Bit rate mode                            : Constant
  50. Bit rate                                 : 384 kb/s
  51. Channel(s)                               : 6 channels
  52. Channel layout                           : L R C LFE Ls Rs
  53. Sampling rate                            : 48.0 kHz
  54. Frame rate                               : 31.250 FPS (1536 SPF)
  55. Bit depth                                : 16 bits
  56. Compression mode                         : Lossy
  57. Stream size                              : 322 MiB (22%)
  58. Title                                    : DD 5.1 AC3 @ TmG
  59. Language                                 : Hindi
  60. Service kind                             : Complete Main
  61. Default                                  : Yes
  62. Forced                                   : No
  63.  
  64. Text #1
  65. ID                                       : 3
  66. Format                                   : UTF-8
  67. Codec ID                                 : S_TEXT/UTF8
  68. Codec ID/Info                            : UTF-8 Plain Text
  69. Title                                    : Ara Subs @ TmG
  70. Language                                 : Arabic
  71. Default                                  : No
  72. Forced                                   : No
  73.  
  74. Text #2
  75. ID                                       : 4
  76. Format                                   : UTF-8
  77. Codec ID                                 : S_TEXT/UTF8
  78. Codec ID/Info                            : UTF-8 Plain Text
  79. Title                                    : Eng Subs @ TmG
  80. Language                                 : English
  81. Default                                  : Yes
  82. Forced                                   : No
  83.  
  84. Text #3
  85. ID                                       : 5
  86. Format                                   : UTF-8
  87. Codec ID                                 : S_TEXT/UTF8
  88. Codec ID/Info                            : UTF-8 Plain Text
  89. Title                                    : Hind Subs @ TmG
  90. Language                                 : Hindi
  91. Default                                  : No
  92. Forced                                   : No