The text below is selected, press Ctrl+C to copy to your clipboard. (⌘+C on Mac) No line numbers will be copied.
Journey to the Center of...

27th July 2020 02:11:28 PM | Views: 37
  1. Format                                   : Matroska
  2. Format version                           : Version 4
  3. File size                                : 4.20 GiB
  4. Duration                                 : 2 h 9 min
  5. Overall bit rate                         : 4 642 kb/s
  6. Movie name                               : Journey to the Center of the Earth (1959) REMASTERED 1080p BluRay x264 English BD5.1 ESub 4.19GB [www.MoviezAddiction.site]
  7. Encoded date                             : UTC 2020-07-26 08:23:55
  8. Writing application                      : mkvmerge v48.0.0 ('Fortress Around Your Heart') 64-bit
  9. Writing library                          : libebml v1.4.0 + libmatroska v1.6.0
  10.  
  11. Video
  12. ID                                       : 1
  13. Format                                   : AVC
  14. Format/Info                              : Advanced Video Codec
  15. Format profile                           : [email protected]
  16. Format settings                          : CABAC / 5 Ref Frames
  17. Format settings, CABAC                   : Yes
  18. Format settings, Reference frames        : 5 frames
  19. Codec ID                                 : V_MPEG4/ISO/AVC
  20. Duration                                 : 2 h 9 min
  21. Bit rate                                 : 4 000 kb/s
  22. Width                                    : 1 920 pixels
  23. Height                                   : 816 pixels
  24. Display aspect ratio                     : 2.35:1
  25. Frame rate mode                          : Constant
  26. Frame rate                               : 23.976 (24000/1001) FPS
  27. Color space                              : YUV
  28. Chroma subsampling                       : 4:2:0
  29. Bit depth                                : 8 bits
  30. Scan type                                : Progressive
  31. Bits/(Pixel*Frame)                       : 0.106
  32. Stream size                              : 3.62 GiB (86%)
  33. Title                                    : [www.MoviezAddiction.site]
  34. Writing library                          : x264 core 160 r3000 33f9e14
  35. Encoding settings                        : cabac=1 / ref=5 / deblock=1:0:0 / analyse=0x3:0x113 / me=hex / subme=8 / psy=1 / psy_rd=1.00:0.00 / mixed_ref=1 / me_range=16 / chroma_me=1 / trellis=2 / 8x8dct=1 / cqm=0 / deadzone=21,11 / fast_pskip=1 / chroma_qp_offset=-2 / threads=25 / lookahead_threads=4 / sliced_threads=0 / nr=0 / decimate=1 / interlaced=0 / bluray_compat=0 / constrained_intra=0 / bframes=3 / b_pyramid=2 / b_adapt=1 / b_bias=0 / direct=3 / weightb=1 / open_gop=0 / weightp=2 / keyint=250 / keyint_min=23 / scenecut=40 / intra_refresh=0 / rc_lookahead=50 / rc=2pass / mbtree=1 / bitrate=4000 / ratetol=1.0 / qcomp=0.60 / qpmin=0 / qpmax=69 / qpstep=4 / cplxblur=20.0 / qblur=0.5 / ip_ratio=1.40 / aq=1:1.00
  36. Default                                  : Yes
  37. Forced                                   : No
  38.  
  39. Audio
  40. ID                                       : 2
  41. Format                                   : E-AC-3
  42. Format/Info                              : Enhanced AC-3
  43. Commercial name                          : Dolby Digital Plus
  44. Codec ID                                 : A_EAC3
  45. Duration                                 : 2 h 9 min
  46. Bit rate mode                            : Constant
  47. Bit rate                                 : 640 kb/s
  48. Channel(s)                               : 6 channels
  49. Channel layout                           : L R C LFE Ls Rs
  50. Sampling rate                            : 48.0 kHz
  51. Frame rate                               : 31.250 FPS (1536 SPF)
  52. Compression mode                         : Lossy
  53. Stream size                              : 593 MiB (14%)
  54. Title                                    : [www.MoviezAddiction.site] - English
  55. Language                                 : English
  56. Service kind                             : Complete Main
  57. Default                                  : Yes
  58. Forced                                   : No
  59.  
  60. Text
  61. ID                                       : 3
  62. Format                                   : UTF-8
  63. Codec ID                                 : S_TEXT/UTF8
  64. Codec ID/Info                            : UTF-8 Plain Text
  65. Duration                                 : 2 h 7 min
  66. Bit rate                                 : 55 b/s
  67. Count of elements                        : 1465
  68. Stream size                              : 51.5 KiB (0%)
  69. Title                                    : [www.MoviezAddiction.site] - English
  70. Language                                 : English
  71. Default                                  : Yes
  72. Forced                                   : Yes
  73.  
  74. Menu
  75. 00:00:00.000                             : en:00:00:00.000
  76. 00:06:54.164                             : en:00:06:54.164
  77. 00:12:21.991                             : en:00:12:21.991
  78. 00:16:34.744                             : en:00:16:34.744
  79. 00:20:06.872                             : en:00:20:06.872
  80. 00:27:23.392                             : en:00:27:23.392
  81. 00:32:47.090                             : en:00:32:47.090
  82. 00:36:34.192                             : en:00:36:34.192
  83. 00:41:06.464                             : en:00:41:06.464
  84. 00:47:59.877                             : en:00:47:59.877
  85. 00:53:12.481                             : en:00:53:12.481
  86. 00:59:17.345                             : en:00:59:17.345
  87. 01:05:39.435                             : en:01:05:39.435
  88. 01:09:33.086                             : en:01:09:33.086
  89. 01:17:37.152                             : en:01:17:37.152
  90. 01:20:12.057                             : en:01:20:12.057
  91. 01:27:46.887                             : en:01:27:46.887
  92. 01:31:10.298                             : en:01:31:10.298
  93. 01:37:47.987                             : en:01:37:47.987
  94. 01:43:02.927                             : en:01:43:02.927
  95. 01:48:21.036                             : en:01:48:21.036
  96. 01:54:06.423                             : en:01:54:06.423
  97. 01:58:12.794                             : en:01:58:12.794
  98. 02:05:01.994                             : en:02:05:01.994