The text below is selected, press Ctrl+C to copy to your clipboard. (⌘+C on Mac) No line numbers will be copied.
As

3rd May 2019 11:20:31 AM | Views: 189
  1. Format                                   : Matroska
  2. Format version                           : Version 4
  3. File size                                : 857 MiB
  4. Duration                                 : 2 h 58 min
  5. Overall bit rate                         : 670 kb/s
  6. Movie name                               : [Desishare.org]
  7. Encoded date                             : UTC 2019-05-03 10:52:25
  8. Writing application                      : mkvmerge v32.0.0 ('Astral Progressions') 64-bit
  9. Writing library                          : libebml v1.3.7 + libmatroska v1.5.0
  10.  
  11. Video
  12. ID                                       : 2
  13. Format                                   : AVC
  14. Format/Info                              : Advanced Video Codec
  15. Format profile                           : [email protected]
  16. Format settings                          : CABAC / 3 Ref Frames
  17. Format settings, CABAC                   : Yes
  18. Format settings, RefFrames               : 3 frames
  19. Codec ID                                 : V_MPEG4/ISO/AVC
  20. Duration                                 : 2 h 58 min
  21. Bit rate mode                            : Constant
  22. Bit rate                                 : 560 kb/s / 560 kb/s
  23. Width                                    : 720 pixels
  24. Height                                   : 576 pixels
  25. Display aspect ratio                     : 16:9
  26. Frame rate mode                          : Constant
  27. Frame rate                               : 25.000 FPS
  28. Standard                                 : NTSC
  29. Color space                              : YUV
  30. Chroma subsampling                       : 4:2:0
  31. Bit depth                                : 8 bits
  32. Scan type                                : Progressive
  33. Bits/(Pixel*Frame)                       : 0.054
  34. Stream size                              : 690 MiB (81%)
  35. Title                                    : [Desishare.org]
  36. Writing library                          : x264 core 114
  37. Encoding settings                        : cabac=1 / ref=3 / deblock=1:0:0 / analyse=0x3:0x113 / me=hex / subme=7 / psy=1 / psy_rd=1.00:0.00 / mixed_ref=1 / me_range=16 / chroma_me=1 / trellis=1 / 8x8dct=1 / cqm=2 / deadzone=21,11 / fast_pskip=1 / chroma_qp_offset=-2 / threads=6 / sliced_threads=0 / slices=1 / nr=0 / decimate=1 / interlaced=0 / constrained_intra=0 / bframes=3 / b_pyramid=0 / b_adapt=1 / b_bias=0 / direct=1 / weightb=1 / open_gop=0 / weightp=2 / keyint=250 / keyint_min=25 / scenecut=40 / intra_refresh=0 / rc_lookahead=40 / rc=cbr / mbtree=1 / bitrate=560 / ratetol=1.0 / qcomp=0.60 / qpmin=3 / qpmax=69 / qpstep=4 / vbv_maxrate=560 / vbv_bufsize=557 / nal_hrd=cbr / ip_ratio=1.40 / aq=1:1.00
  38. Default                                  : Yes
  39. Forced                                   : No
  40. Color range                              : Limited
  41. Color primaries                          : BT.601 PAL
  42. Transfer characteristics                 : BT.470 System B/G
  43. Matrix coefficients                      : BT.470 System B/G
  44.  
  45. Audio
  46. ID                                       : 1
  47. Format                                   : AAC LC
  48. Format/Info                              : Advanced Audio Codec Low Complexity
  49. Codec ID                                 : A_AAC-2
  50. Duration                                 : 2 h 58 min
  51. Bit rate                                 : 128 kb/s
  52. Channel(s)                               : 2 channels
  53. Channel layout                           : L R
  54. Sampling rate                            : 48.0 kHz
  55. Frame rate                               : 46.875 FPS (1024 SPF)
  56. Compression mode                         : Lossy
  57. Stream size                              : 164 MiB (19%)
  58. Title                                    : [Desishare.org]
  59. Default                                  : Yes
  60. Forced                                   : No