The text below is selected, press Ctrl+C to copy to your clipboard. (⌘+C on Mac) No line numbers will be copied.
13 Reasons Why (2017) S01E01...

27th June 2020 06:15:54 AM | Views: 10
  1. Format                                   : Matroska
  2. Format version                           : Version 4
  3. File size                                : 1.06 GiB
  4. Duration                                 : 52 min 57 s
  5. Overall bit rate                         : 2 869 kb/s
  6. Movie name                               : 13 Reasons Why (2017) S01E01 (Tape 1, Side A) 1080p WEB-DL x264 English DD5.1 ESub 1.06GB [Www.MoviezAddiction.site]
  7. Encoded date                             : UTC 2020-06-26 11:30:26
  8. Writing application                      : mkvmerge v47.0.0 ('Black Flag') 64-bit
  9. Writing library                          : libebml v1.3.10 + libmatroska v1.5.2
  10.  
  11. Video
  12. ID                                       : 1
  13. Format                                   : AVC
  14. Format/Info                              : Advanced Video Codec
  15. Format profile                           : [email protected]
  16. Format settings                          : CABAC / 4 Ref Frames
  17. Format settings, CABAC                   : Yes
  18. Format settings, Reference frames        : 4 frames
  19. Codec ID                                 : V_MPEG4/ISO/AVC
  20. Duration                                 : 52 min 38 s
  21. Bit rate                                 : 2 500 kb/s
  22. Width                                    : 1 920 pixels
  23. Height                                   : 1 080 pixels
  24. Display aspect ratio                     : 16:9
  25. Frame rate mode                          : Constant
  26. Frame rate                               : 23.976 (24000/1001) FPS
  27. Color space                              : YUV
  28. Chroma subsampling                       : 4:2:0
  29. Bit depth                                : 8 bits
  30. Scan type                                : Progressive
  31. Bits/(Pixel*Frame)                       : 0.050
  32. Stream size                              : 941 MiB (87%)
  33. Title                                    : [Www.MoviezAddiction.site]
  34. Writing library                          : x264 core 157 r2935 545de2f
  35. Encoding settings                        : cabac=1 / ref=4 / deblock=1:0:0 / analyse=0x3:0x113 / me=hex / subme=8 / psy=1 / psy_rd=1.00:0.00 / mixed_ref=1 / me_range=16 / chroma_me=1 / trellis=2 / 8x8dct=1 / cqm=0 / deadzone=21,11 / fast_pskip=1 / chroma_qp_offset=-2 / threads=34 / lookahead_threads=5 / sliced_threads=0 / nr=0 / decimate=1 / interlaced=0 / bluray_compat=0 / constrained_intra=0 / bframes=3 / b_pyramid=2 / b_adapt=1 / b_bias=0 / direct=3 / weightb=1 / open_gop=0 / weightp=2 / keyint=240 / keyint_min=24 / scenecut=40 / intra_refresh=0 / rc_lookahead=50 / rc=2pass / mbtree=1 / bitrate=2500 / ratetol=1.0 / qcomp=0.60 / qpmin=0 / qpmax=69 / qpstep=4 / cplxblur=20.0 / qblur=0.5 / vbv_maxrate=62500 / vbv_bufsize=78125 / nal_hrd=none / filler=0 / ip_ratio=1.40 / aq=1:1.00
  36. Default                                  : Yes
  37. Forced                                   : No
  38. Color range                              : Limited
  39. Color primaries                          : BT.709
  40. Transfer characteristics                 : BT.709
  41. Matrix coefficients                      : BT.709
  42.  
  43. Audio
  44. ID                                       : 2
  45. Format                                   : AC-3
  46. Format/Info                              : Audio Coding 3
  47. Commercial name                          : Dolby Digital
  48. Codec ID                                 : A_AC3
  49. Duration                                 : 52 min 57 s
  50. Bit rate mode                            : Constant
  51. Bit rate                                 : 384 kb/s
  52. Channel(s)                               : 6 channels
  53. Channel layout                           : L R C LFE Ls Rs
  54. Sampling rate                            : 48.0 kHz
  55. Frame rate                               : 31.250 FPS (1536 SPF)
  56. Compression mode                         : Lossy
  57. Stream size                              : 145 MiB (13%)
  58. Title                                    : [Www.MoviezAddiction.site] - English
  59. Language                                 : English
  60. Service kind                             : Complete Main
  61. Default                                  : Yes
  62. Forced                                   : No
  63.  
  64. Text
  65. ID                                       : 3
  66. Format                                   : UTF-8
  67. Codec ID                                 : S_TEXT/UTF8
  68. Codec ID/Info                            : UTF-8 Plain Text
  69. Duration                                 : 51 min 55 s
  70. Bit rate                                 : 72 b/s
  71. Count of elements                        : 876
  72. Stream size                              : 27.5 KiB (0%)
  73. Title                                    : [Www.MoviezAddiction.site] - English
  74. Language                                 : English
  75. Default                                  : Yes
  76. Forced                                   : Yes