The text below is selected, press Ctrl+C to copy to your clipboard. (⌘+C on Mac) No line numbers will be copied.
Welcome to Marwen (2018) 1080p...

11th September 2020 07:12:26 AM | Views: 38
  1. Format                                   : Matroska
  2. Format version                           : Version 4
  3. File size                                : 2.61 GiB
  4. Duration                                 : 1 h 55 min
  5. Overall bit rate                         : 3 224 kb/s
  6. Movie name                               : Welcome to Marwen (2018) 1080p BluRay x265 10bit HEVC Dual Audio [Hindi DDP5.1 + English BD5.1] MSubs 2.61GB [www.MoviezAddiction.site]
  7. Encoded date                             : UTC 2020-09-03 07:14:45
  8. Writing application                      : mkvmerge v48.0.0 ('Fortress Around Your Heart') 64-bit
  9. Writing library                          : libebml v1.4.0 + libmatroska v1.6.0
  10.  
  11. Video
  12. ID                                       : 1
  13. Format                                   : HEVC
  14. Format/Info                              : High Efficiency Video Coding
  15. Format profile                           : Main [email protected]@Main
  16. Codec ID                                 : V_MPEGH/ISO/HEVC
  17. Duration                                 : 1 h 55 min
  18. Bit rate                                 : 1 847 kb/s
  19. Width                                    : 1 920 pixels
  20. Height                                   : 808 pixels
  21. Display aspect ratio                     : 2.40:1
  22. Frame rate mode                          : Constant
  23. Frame rate                               : 23.976 (24000/1001) FPS
  24. Color space                              : YUV
  25. Chroma subsampling                       : 4:2:0
  26. Bit depth                                : 10 bits
  27. Bits/(Pixel*Frame)                       : 0.050
  28. Stream size                              : 1.50 GiB (57%)
  29. Title                                    : [www.MoviezAddiction.site]
  30. Default                                  : Yes
  31. Forced                                   : No
  32.  
  33. Audio #1
  34. ID                                       : 2
  35. Format                                   : AC-3
  36. Format/Info                              : Audio Coding 3
  37. Commercial name                          : Dolby Digital
  38. Codec ID                                 : A_AC3
  39. Duration                                 : 1 h 55 min
  40. Bit rate mode                            : Constant
  41. Bit rate                                 : 640 kb/s
  42. Channel(s)                               : 6 channels
  43. Channel layout                           : L R C LFE Ls Rs
  44. Sampling rate                            : 48.0 kHz
  45. Frame rate                               : 31.250 FPS (1536 SPF)
  46. Compression mode                         : Lossy
  47. Stream size                              : 531 MiB (20%)
  48. Title                                    : [www.MoviezAddiction.site] - English
  49. Language                                 : English
  50. Service kind                             : Complete Main
  51. Default                                  : No
  52. Forced                                   : No
  53.  
  54. Audio #2
  55. ID                                       : 3
  56. Format                                   : E-AC-3
  57. Format/Info                              : Enhanced AC-3
  58. Commercial name                          : Dolby Digital Plus
  59. Codec ID                                 : A_EAC3
  60. Duration                                 : 1 h 55 min
  61. Bit rate mode                            : Constant
  62. Bit rate                                 : 640 kb/s
  63. Channel(s)                               : 6 channels
  64. Channel layout                           : L R C LFE Ls Rs
  65. Sampling rate                            : 48.0 kHz
  66. Frame rate                               : 31.250 FPS (1536 SPF)
  67. Compression mode                         : Lossy
  68. Delay relative to video                  : 3 s 462 ms
  69. Stream size                              : 530 MiB (20%)
  70. Title                                    : [www.MoviezAddiction.site] - Hindi
  71. Language                                 : Hindi
  72. Service kind                             : Complete Main
  73. Default                                  : Yes
  74. Forced                                   : Yes
  75.  
  76. Text #1
  77. ID                                       : 4
  78. Format                                   : PGS
  79. Codec ID                                 : S_HDMV/PGS
  80. Codec ID/Info                            : Picture based subtitle format used on BDs/HD-DVDs
  81. Duration                                 : 1 h 47 min
  82. Bit rate                                 : 32.5 kb/s
  83. Count of elements                        : 3348
  84. Stream size                              : 25.0 MiB (1%)
  85. Title                                    : [www.MoviezAddiction.site] - English [PGS]
  86. Language                                 : English
  87. Default                                  : No
  88. Forced                                   : No
  89.  
  90. Text #2
  91. ID                                       : 5
  92. Format                                   : PGS
  93. Codec ID                                 : S_HDMV/PGS
  94. Codec ID/Info                            : Picture based subtitle format used on BDs/HD-DVDs
  95. Duration                                 : 1 h 46 min
  96. Bit rate                                 : 44.9 kb/s
  97. Count of elements                        : 3330
  98. Stream size                              : 34.0 MiB (1%)
  99. Title                                    : [www.MoviezAddiction.site] - English [SDH] [PGS]
  100. Language                                 : English
  101. Default                                  : No
  102. Forced                                   : No
  103.  
  104. Text #3
  105. ID                                       : 6
  106. Format                                   : PGS
  107. Codec ID                                 : S_HDMV/PGS
  108. Codec ID/Info                            : Picture based subtitle format used on BDs/HD-DVDs
  109. Duration                                 : 1 h 54 min
  110. Bit rate                                 : 24.1 kb/s
  111. Count of elements                        : 2780
  112. Stream size                              : 19.7 MiB (1%)
  113. Title                                    : [www.MoviezAddiction.site] - Hindi [PGS]
  114. Language                                 : Hindi
  115. Default                                  : Yes
  116. Forced                                   : Yes
  117.  
  118. Menu
  119. 00:00:00.000                             : en:Chapter 1
  120. 00:04:17.257                             : en:Chapter 2
  121. 00:10:57.448                             : en:Chapter 3
  122. 00:16:42.877                             : en:Chapter 4
  123. 00:22:26.971                             : en:Chapter 5
  124. 00:27:34.820                             : en:Chapter 6
  125. 00:35:10.775                             : en:Chapter 7
  126. 00:41:09.217                             : en:Chapter 8
  127. 00:45:59.256                             : en:Chapter 9
  128. 00:51:35.634                             : en:Chapter 10
  129. 01:00:35.924                             : en:Chapter 11
  130. 01:03:30.974                             : en:Chapter 12
  131. 01:08:07.250                             : en:Chapter 13
  132. 01:13:38.706                             : en:Chapter 14
  133. 01:17:14.713                             : en:Chapter 15
  134. 01:25:13.525                             : en:Chapter 16
  135. 01:30:48.485                             : en:Chapter 17
  136. 01:39:34.719                             : en:Chapter 18
  137. 01:43:31.372                             : en:Chapter 19
  138. 01:48:50.232                             : en:Chapter 20