The text below is selected, press Ctrl+C to copy to your clipboard. (⌘+C on Mac) No line numbers will be copied.
The Ugly Truth (2009) 720p

16th September 2020 12:24:04 PM | Views: 16
  1. Format                                   : Matroska
  2. Format version                           : Version 4
  3. File size                                : 979 MiB
  4. Duration                                 : 1 h 35 min
  5. Overall bit rate                         : 1 427 kb/s
  6. Movie name                               : The Ugly Truth (2009) 720p Bluray x264 Dual Audio [ Hindi DD2.0 + English DD5.1 ] ESub [www.MoviezAddiction.space]
  7. Encoded date                             : UTC 2020-09-16 10:06:48
  8. Writing application                      : mkvmerge v48.0.0 ('Fortress Around Your Heart') 64-bit
  9. Writing library                          : libebml v1.4.0 + libmatroska v1.6.0
  10.  
  11. Video
  12. ID                                       : 3
  13. Format                                   : AVC
  14. Format/Info                              : Advanced Video Codec
  15. Format profile                           : [email protected]
  16. Format settings                          : CABAC / 5 Ref Frames
  17. Format settings, CABAC                   : Yes
  18. Format settings, Reference frames        : 5 frames
  19. Codec ID                                 : V_MPEG4/ISO/AVC
  20. Duration                                 : 1 h 35 min
  21. Bit rate                                 : 1 011 kb/s
  22. Width                                    : 1 280 pixels
  23. Height                                   : 532 pixels
  24. Display aspect ratio                     : 2.40:1
  25. Frame rate mode                          : Constant
  26. Frame rate                               : 23.976 (24000/1001) FPS
  27. Color space                              : YUV
  28. Chroma subsampling                       : 4:2:0
  29. Bit depth                                : 8 bits
  30. Scan type                                : Progressive
  31. Bits/(Pixel*Frame)                       : 0.062
  32. Stream size                              : 694 MiB (71%)
  33. Title                                    : [www.MoviezAddiction.space]
  34. Writing library                          : x264 core 148 r2721 72d53ab
  35. Encoding settings                        : cabac=1 / ref=5 / deblock=1:-1:-1 / analyse=0x3:0x133 / me=umh / subme=9 / psy=1 / psy_rd=1.00:0.15 / mixed_ref=1 / me_range=24 / chroma_me=1 / trellis=2 / 8x8dct=1 / cqm=0 / deadzone=21,11 / fast_pskip=1 / chroma_qp_offset=-3 / threads=12 / lookahead_threads=1 / sliced_threads=0 / nr=0 / decimate=1 / interlaced=0 / bluray_compat=0 / constrained_intra=0 / bframes=3 / b_pyramid=2 / b_adapt=2 / b_bias=0 / direct=3 / weightb=1 / open_gop=0 / weightp=2 / keyint=250 / keyint_min=23 / scenecut=40 / intra_refresh=0 / rc_lookahead=60 / rc=2pass / mbtree=1 / bitrate=1011 / ratetol=1.0 / qcomp=0.60 / qpmin=0 / qpmax=69 / qpstep=4 / cplxblur=20.0 / qblur=0.5 / vbv_maxrate=17000 / vbv_bufsize=19500 / nal_hrd=none / filler=0 / ip_ratio=1.40 / aq=3:0.80
  36. Default                                  : Yes
  37. Forced                                   : No
  38.  
  39. Audio #1
  40. ID                                       : 1
  41. Format                                   : AC-3
  42. Format/Info                              : Audio Coding 3
  43. Commercial name                          : Dolby Digital
  44. Codec ID                                 : A_AC3
  45. Duration                                 : 1 h 35 min
  46. Bit rate mode                            : Constant
  47. Bit rate                                 : 224 kb/s
  48. Channel(s)                               : 2 channels
  49. Channel layout                           : L R
  50. Sampling rate                            : 48.0 kHz
  51. Frame rate                               : 31.250 FPS (1536 SPF)
  52. Compression mode                         : Lossy
  53. Stream size                              : 154 MiB (16%)
  54. Title                                    : [www.MoviezAddiction.space]
  55. Language                                 : Hindi
  56. Service kind                             : Complete Main
  57. Default                                  : Yes
  58. Forced                                   : Yes
  59.  
  60. Audio #2
  61. ID                                       : 5
  62. Format                                   : AAC LC
  63. Format/Info                              : Advanced Audio Codec Low Complexity
  64. Codec ID                                 : A_AAC-2
  65. Duration                                 : 1 h 35 min
  66. Bit rate                                 : 192 kb/s
  67. Channel(s)                               : 6 channels
  68. Channel layout                           : C L R Ls Rs LFE
  69. Sampling rate                            : 48.0 kHz
  70. Frame rate                               : 46.875 FPS (1024 SPF)
  71. Compression mode                         : Lossy
  72. Stream size                              : 130 MiB (13%)
  73. Title                                    : [www.MoviezAddiction.space]
  74. Language                                 : English
  75. Default                                  : No
  76. Forced                                   : No
  77.  
  78. Text #1
  79. ID                                       : 2
  80. Format                                   : UTF-8
  81. Codec ID                                 : S_TEXT/UTF8
  82. Codec ID/Info                            : UTF-8 Plain Text
  83. Duration                                 : 1 h 30 min
  84. Bit rate                                 : 91 b/s
  85. Count of elements                        : 1501
  86. Stream size                              : 60.3 KiB (0%)
  87. Title                                    : [www.MoviezAddiction.space]
  88. Language                                 : English
  89. Default                                  : Yes
  90. Forced                                   : Yes
  91.  
  92. Text #2
  93. ID                                       : 4
  94. Format                                   : UTF-8
  95. Codec ID                                 : S_TEXT/UTF8
  96. Codec ID/Info                            : UTF-8 Plain Text
  97. Duration                                 : 1 h 30 min
  98. Bit rate                                 : 89 b/s
  99. Count of elements                        : 1506
  100. Stream size                              : 59.3 KiB (0%)
  101. Title                                    : [www.MoviezAddiction.space]
  102. Language                                 : English
  103. Default                                  : No
  104. Forced                                   : No
  105.  
  106. Menu #1
  107. 00:00:00.000                             : en:00:00:00.000
  108. 00:05:00.000                             : en:00:05:00.000
  109. 00:10:00.000                             : en:00:10:00.000
  110. 00:15:00.000                             : en:00:15:00.000
  111. 00:20:00.000                             : en:00:20:00.000
  112. 00:25:00.000                             : en:00:25:00.000
  113. 00:30:00.000                             : en:00:30:00.000
  114. 00:35:00.000                             : en:00:35:00.000
  115. 00:40:00.000                             : en:00:40:00.000
  116. 00:45:00.000                             : en:00:45:00.000
  117. 00:50:00.000                             : en:00:50:00.000
  118. 00:55:00.000                             : en:00:55:00.000
  119. 01:00:00.000                             : en:01:00:00.000
  120. 01:05:00.000                             : en:01:05:00.000
  121. 01:10:00.000                             : en:01:10:00.000
  122. 01:15:00.000                             : en:01:15:00.000
  123. 01:20:00.000                             : en:01:20:00.000
  124. 01:25:00.000                             : en:01:25:00.000
  125. 01:30:00.000                             : en:01:30:00.000
  126. 01:35:00.000                             : en:01:35:00.000
  127.  
  128. Menu #2
  129. 00:00:00.054                             : en:00:00:00.054