The text below is selected, press Ctrl+C to copy to your clipboard. (⌘+C on Mac) No line numbers will be copied.
Dark Season 2 (2019) 720p

27th June 2020 10:11:29 PM | Views: 12
  1. General
  2. Unique ID                                : 88561554969698887685649615758762137840 (0x42A055C6BD24287FC1E80F30227758F0)
  3. Complete name                            : S:\Dark Season 2 Working\720p\Dark (2019) S02E01 [Beginnings and Endings] 720p 10bit WEB-DL x265 [English DD5.1] ESubs - [Www.MoviezAddiction.Site].mkv
  4. Format                                   : Matroska
  5. Format version                           : Version 4
  6. File size                                : 280 MiB
  7. Duration                                 : 53 min 56 s
  8. Overall bit rate                         : 726 kb/s
  9. Movie name                               : Dark (2019) S02E01 [Beginnings and Endings] 720p 10bit WEB-DL x265 [English DD5.1] ESubs - [Www.MoviezAddiction.Site]
  10. Encoded date                             : UTC 2020-06-27 19:23:23
  11. Writing application                      : mkvmerge v47.0.0 ('Black Flag') 64-bit
  12. Writing library                          : libebml v1.3.10 + libmatroska v1.5.2
  13.  
  14. Video
  15. ID                                       : 1
  16. Format                                   : HEVC
  17. Format/Info                              : High Efficiency Video Coding
  18. Format profile                           : Main [email protected]@Main
  19. Codec ID                                 : V_MPEGH/ISO/HEVC
  20. Duration                                 : 53 min 55 s
  21. Bit rate                                 : 539 kb/s
  22. Width                                    : 1 280 pixels
  23. Height                                   : 640 pixels
  24. Display aspect ratio                     : 2.000
  25. Frame rate mode                          : Constant
  26. Frame rate                               : 24.000 FPS
  27. Color space                              : YUV
  28. Chroma subsampling                       : 4:2:0
  29. Bit depth                                : 10 bits
  30. Bits/(Pixel*Frame)                       : 0.027
  31. Stream size                              : 208 MiB (74%)
  32. Title                                    : [Www.MoviezAddiction.Site]
  33. Default                                  : Yes
  34. Forced                                   : No
  35.  
  36. Audio
  37. ID                                       : 4
  38. Format                                   : AAC LC SBR
  39. Format/Info                              : Advanced Audio Codec Low Complexity with Spectral Band Replication
  40. Commercial name                          : HE-AAC
  41. Format settings                          : Explicit
  42. Codec ID                                 : A_AAC-2
  43. Duration                                 : 53 min 56 s
  44. Bit rate                                 : 184 kb/s
  45. Channel(s)                               : 6 channels
  46. Channel layout                           : C L R Ls Rs LFE
  47. Sampling rate                            : 48.0 kHz
  48. Frame rate                               : 23.438 FPS (2048 SPF)
  49. Compression mode                         : Lossy
  50. Delay relative to video                  : 81 ms
  51. Stream size                              : 71.1 MiB (25%)
  52. Title                                    : [Www.MoviezAddiction.Site]
  53. Language                                 : English
  54. Default                                  : No
  55. Forced                                   : No
  56.  
  57. Text #1
  58. ID                                       : 2
  59. Format                                   : UTF-8
  60. Codec ID                                 : S_TEXT/UTF8
  61. Codec ID/Info                            : UTF-8 Plain Text
  62. Duration                                 : 50 min 4 s
  63. Bit rate                                 : 28 b/s
  64. Count of elements                        : 370
  65. Stream size                              : 10.6 KiB (0%)
  66. Title                                    : [Www.MoviezAddiction.Site]
  67. Language                                 : English
  68. Default                                  : No
  69. Forced                                   : No
  70.  
  71. Text #2
  72. ID                                       : 3
  73. Format                                   : UTF-8
  74. Codec ID                                 : S_TEXT/UTF8
  75. Codec ID/Info                            : UTF-8 Plain Text
  76. Duration                                 : 50 min 10 s
  77. Bit rate                                 : 38 b/s
  78. Count of elements                        : 466
  79. Stream size                              : 14.2 KiB (0%)
  80. Title                                    : [Www.MoviezAddiction.Site]
  81. Language                                 : English
  82. Default                                  : No
  83. Forced                                   : No