The text below is selected, press Ctrl+C to copy to your clipboard. (⌘+C on Mac) No line numbers will be copied.
Blonde (2022) 2160p NF UHD...

8th November 2022 02:26:00 PM | Views: 14
  1. Format                                   : Matroska
  2. Format version                           : Version 4
  3. File size                                : 22.5 GiB
  4. Duration                                 : 2 h 47 min
  5. Overall bit rate                         : 19.2 Mb/s
  6. Movie name                               : Blonde (2022) 2160p NF UHD WEB-DL x265 10bit SDR HEVC Dual Audio [Hindi DDP5.1 + English DDP5.1 Atmos] ESub 22.4GB [MoviezAddiction.life]
  7. Encoded date                             : UTC 2022-11-08 05:34:48
  8. Writing application                      : mkvmerge v71.1.0 ('Fortitude') 64-bit
  9. Writing library                          : libebml v1.4.4 + libmatroska v1.7.1
  10.  
  11. Video
  12. ID                                       : 1
  13. Format                                   : HEVC
  14. Format/Info                              : High Efficiency Video Coding
  15. Format profile                           : Main [email protected]@Main
  16. Codec ID                                 : V_MPEGH/ISO/HEVC
  17. Duration                                 : 2 h 47 min
  18. Bit rate                                 : 17.8 Mb/s
  19. Width                                    : 3 840 pixels
  20. Height                                   : 2 160 pixels
  21. Display aspect ratio                     : 16:9
  22. Frame rate mode                          : Constant
  23. Frame rate                               : 24.000 FPS
  24. Color space                              : YUV
  25. Chroma subsampling                       : 4:2:0
  26. Bit depth                                : 10 bits
  27. Bits/(Pixel*Frame)                       : 0.089
  28. Stream size                              : 20.8 GiB (93%)
  29. Default                                  : Yes
  30. Forced                                   : No
  31. Color range                              : Limited
  32. Color primaries                          : BT.709
  33. Transfer characteristics                 : BT.709
  34. Matrix coefficients                      : BT.709
  35.  
  36. Audio #1
  37. ID                                       : 2
  38. Format                                   : E-AC-3
  39. Format/Info                              : Enhanced AC-3
  40. Commercial name                          : Dolby Digital Plus
  41. Codec ID                                 : A_EAC3
  42. Duration                                 : 2 h 47 min
  43. Bit rate mode                            : Constant
  44. Bit rate                                 : 640 kb/s
  45. Channel(s)                               : 6 channels
  46. Channel layout                           : L R C LFE Ls Rs
  47. Sampling rate                            : 48.0 kHz
  48. Frame rate                               : 31.250 FPS (1536 SPF)
  49. Compression mode                         : Lossy
  50. Stream size                              : 767 MiB (3%)
  51. Title                                    : Hindi
  52. Language                                 : Hindi
  53. Service kind                             : Complete Main
  54. Default                                  : Yes
  55. Forced                                   : No
  56.  
  57. Audio #2
  58. ID                                       : 3
  59. Format                                   : E-AC-3 JOC
  60. Format/Info                              : Enhanced AC-3 with Joint Object Coding
  61. Commercial name                          : Dolby Digital Plus with Dolby Atmos
  62. Codec ID                                 : A_EAC3
  63. Duration                                 : 2 h 47 min
  64. Bit rate mode                            : Constant
  65. Bit rate                                 : 768 kb/s
  66. Channel(s)                               : 6 channels
  67. Channel layout                           : L R C LFE Ls Rs
  68. Sampling rate                            : 48.0 kHz
  69. Frame rate                               : 31.250 FPS (1536 SPF)
  70. Compression mode                         : Lossy
  71. Stream size                              : 920 MiB (4%)
  72. Title                                    : English
  73. Language                                 : English
  74. Service kind                             : Complete Main
  75. Default                                  : No
  76. Forced                                   : No
  77. Complexity index                         : 16
  78. Number of dynamic objects                : 15
  79. Bed channel count                        : 1 channel
  80. Bed channel configuration                : LFE
  81.  
  82. Text
  83. ID                                       : 4
  84. Format                                   : UTF-8
  85. Codec ID                                 : S_TEXT/UTF8
  86. Codec ID/Info                            : UTF-8 Plain Text
  87. Duration                                 : 2 h 35 min
  88. Bit rate                                 : 35 b/s
  89. Frame rate                               : 0.142 FPS
  90. Count of elements                        : 1331
  91. Stream size                              : 41.0 KiB (0%)
  92. Title                                    : English [SRT]
  93. Language                                 : English
  94. Default                                  : Yes
  95. Forced                                   : No
  96.  
  97. Menu
  98. 00:00:00.000                             : en:Part 01
  99. 02:43:12.000                             : en:Credits