The text below is selected, press Ctrl+C to copy to your clipboard. (⌘+C on Mac) No line numbers will be copied.
The Thing (2011) 720p BluRay...

7th November 2022 08:05:21 AM | Views: 22
  1. Format                                   : Matroska
  2. Format version                           : Version 4
  3. File size                                : 1.08 GiB
  4. Duration                                 : 1 h 43 min
  5. Overall bit rate                         : 1 501 kb/s
  6. Movie name                               : The Thing (2011) 720p BluRay x264 Dual Audio [Hindi DVD DD5.1 + English BD5.1] ESub 1.08GB [MoviezAddiction.life]
  7. Encoded date                             : UTC 2022-11-07 02:27:01
  8. Writing application                      : mkvmerge v71.1.0 ('Fortitude') 64-bit
  9. Writing library                          : libebml v1.4.4 + libmatroska v1.7.1
  10.  
  11. Video
  12. ID                                       : 1
  13. Format                                   : AVC
  14. Format/Info                              : Advanced Video Codec
  15. Format profile                           : [email protected]
  16. Format settings                          : CABAC / 4 Ref Frames
  17. Format settings, CABAC                   : Yes
  18. Format settings, Reference frames        : 4 frames
  19. Codec ID                                 : V_MPEG4/ISO/AVC
  20. Duration                                 : 1 h 43 min
  21. Bit rate                                 : 1 099 kb/s
  22. Width                                    : 1 280 pixels
  23. Height                                   : 534 pixels
  24. Display aspect ratio                     : 2.40:1
  25. Original display aspect ratio            : 2.40:1
  26. Frame rate mode                          : Variable
  27. Frame rate                               : 23.976 (24000/1001) FPS
  28. Color space                              : YUV
  29. Chroma subsampling                       : 4:2:0
  30. Bit depth                                : 8 bits
  31. Scan type                                : Progressive
  32. Bits/(Pixel*Frame)                       : 0.067
  33. Stream size                              : 809 MiB (73%)
  34. Default                                  : Yes
  35. Forced                                   : No
  36.  
  37. Audio #1
  38. ID                                       : 2
  39. Format                                   : AAC LC SBR
  40. Format/Info                              : Advanced Audio Codec Low Complexity with Spectral Band Replication
  41. Commercial name                          : HE-AAC
  42. Format settings                          : Explicit
  43. Codec ID                                 : A_AAC-2
  44. Duration                                 : 1 h 43 min
  45. Bit rate                                 : 192 kb/s
  46. Channel(s)                               : 6 channels
  47. Channel layout                           : C L R Ls Rs LFE
  48. Sampling rate                            : 48.0 kHz
  49. Frame rate                               : 23.438 FPS (2048 SPF)
  50. Compression mode                         : Lossy
  51. Delay relative to video                  : 128 ms
  52. Stream size                              : 141 MiB (13%)
  53. Title                                    : Hindi
  54. Language                                 : Hindi
  55. Default                                  : Yes
  56. Forced                                   : No
  57.  
  58. Audio #2
  59. ID                                       : 3
  60. Format                                   : AAC LC SBR
  61. Format/Info                              : Advanced Audio Codec Low Complexity with Spectral Band Replication
  62. Commercial name                          : HE-AAC
  63. Format settings                          : Explicit
  64. Codec ID                                 : A_AAC-2
  65. Duration                                 : 1 h 43 min
  66. Bit rate                                 : 192 kb/s
  67. Channel(s)                               : 6 channels
  68. Channel layout                           : C L R Ls Rs LFE
  69. Sampling rate                            : 48.0 kHz
  70. Frame rate                               : 23.438 FPS (2048 SPF)
  71. Compression mode                         : Lossy
  72. Stream size                              : 141 MiB (13%)
  73. Title                                    : English
  74. Language                                 : English
  75. Default                                  : No
  76. Forced                                   : No
  77.  
  78. Text
  79. ID                                       : 4
  80. Format                                   : PGS
  81. Codec ID                                 : S_HDMV/PGS
  82. Codec ID/Info                            : Picture based subtitle format used on BDs/HD-DVDs
  83. Duration                                 : 1 h 36 min
  84. Bit rate                                 : 19.9 kb/s
  85. Frame rate                               : 0.295 FPS
  86. Count of elements                        : 1702
  87. Stream size                              : 13.7 MiB (1%)
  88. Title                                    : English [PGS]
  89. Language                                 : English
  90. Default                                  : Yes
  91. Forced                                   : No
  92.  
  93. Menu
  94. 00:00:00.000                             : en:00:00:00.000
  95. 00:04:31.896                             : en:00:04:31.896
  96. 00:10:51.901                             : en:00:10:51.901
  97. 00:14:41.422                             : en:00:14:41.422
  98. 00:17:05.774                             : en:00:17:05.774
  99. 00:20:39.655                             : en:00:20:39.655
  100. 00:25:09.549                             : en:00:25:09.549
  101. 00:32:49.634                             : en:00:32:49.634
  102. 00:38:06.117                             : en:00:38:06.117
  103. 00:43:02.705                             : en:00:43:02.705
  104. 00:51:15.739                             : en:00:51:15.739
  105. 00:55:13.184                             : en:00:55:13.184
  106. 01:00:04.350                             : en:01:00:04.350
  107. 01:04:51.804                             : en:01:04:51.804
  108. 01:09:58.235                             : en:01:09:58.235
  109. 01:14:39.516                             : en:01:14:39.516
  110. 01:20:58.520                             : en:01:20:58.520
  111. 01:24:46.372                             : en:01:24:46.372
  112. 01:30:30.675                             : en:01:30:30.675
  113. 01:34:56.315                             : en:01:34:56.315