The text below is selected, press Ctrl+C to copy to your clipboard. (⌘+C on Mac) No line numbers will be copied.
Smile (2022) REMASTERED DS4K 720p...

18th November 2022 12:21:28 AM | Views: 23
  1. Format                                   : Matroska
  2. Format version                           : Version 4
  3. File size                                : 1.20 GiB
  4. Duration                                 : 1 h 57 min
  5. Overall bit rate                         : 1 467 kb/s
  6. Movie name                               : Smile (2022) REMASTERED DS4K 720p PMTP WEB-DL x264 Dual Audio [Hindi DD5.1 + English DD5.1] ESub 1.19GB [MoviezAddiction.life]
  7. Encoded date                             : UTC 2022-11-17 01:02:09
  8. Writing application                      : mkvmerge v72.0.0 ('Minuano (Six-eight)') 64-bit
  9. Writing library                          : libebml v1.4.4 + libmatroska v1.7.1
  10.  
  11. Video
  12. ID                                       : 1
  13. Format                                   : AVC
  14. Format/Info                              : Advanced Video Codec
  15. Format profile                           : [email protected]
  16. Format settings                          : CABAC / 4 Ref Frames
  17. Format settings, CABAC                   : Yes
  18. Format settings, Reference frames        : 4 frames
  19. Codec ID                                 : V_MPEG4/ISO/AVC
  20. Duration                                 : 1 h 55 min
  21. Bit rate                                 : 1 099 kb/s
  22. Width                                    : 1 280 pixels
  23. Height                                   : 640 pixels
  24. Display aspect ratio                     : 2.000
  25. Frame rate mode                          : Variable
  26. Frame rate                               : 23.976 FPS
  27. Color space                              : YUV
  28. Chroma subsampling                       : 4:2:0
  29. Bit depth                                : 8 bits
  30. Scan type                                : Progressive
  31. Bits/(Pixel*Frame)                       : 0.056
  32. Stream size                              : 909 MiB (74%)
  33. Default                                  : Yes
  34. Forced                                   : No
  35. Color range                              : Limited
  36. Color primaries                          : BT.709
  37. Transfer characteristics                 : BT.709
  38. Matrix coefficients                      : BT.709
  39.  
  40. Audio #1
  41. ID                                       : 2
  42. Format                                   : AAC LC SBR
  43. Format/Info                              : Advanced Audio Codec Low Complexity with Spectral Band Replication
  44. Commercial name                          : HE-AAC
  45. Format settings                          : Explicit
  46. Codec ID                                 : A_AAC-2
  47. Duration                                 : 1 h 57 min
  48. Bit rate                                 : 192 kb/s
  49. Channel(s)                               : 6 channels
  50. Channel layout                           : C L R Ls Rs LFE
  51. Sampling rate                            : 48.0 kHz
  52. Frame rate                               : 23.438 FPS (2048 SPF)
  53. Compression mode                         : Lossy
  54. Delay relative to video                  : -6 ms
  55. Stream size                              : 160 MiB (13%)
  56. Title                                    : Hindi
  57. Language                                 : Hindi
  58. Default                                  : Yes
  59. Forced                                   : No
  60.  
  61. Audio #2
  62. ID                                       : 3
  63. Format                                   : AAC LC SBR
  64. Format/Info                              : Advanced Audio Codec Low Complexity with Spectral Band Replication
  65. Commercial name                          : HE-AAC
  66. Format settings                          : Explicit
  67. Codec ID                                 : A_AAC-2
  68. Duration                                 : 1 h 55 min
  69. Bit rate                                 : 192 kb/s
  70. Channel(s)                               : 6 channels
  71. Channel layout                           : C L R Ls Rs LFE
  72. Sampling rate                            : 48.0 kHz
  73. Frame rate                               : 23.438 FPS (2048 SPF)
  74. Compression mode                         : Lossy
  75. Stream size                              : 158 MiB (13%)
  76. Title                                    : English
  77. Language                                 : English
  78. Default                                  : No
  79. Forced                                   : No
  80.  
  81. Text
  82. ID                                       : 4
  83. Format                                   : UTF-8
  84. Codec ID                                 : S_TEXT/UTF8
  85. Codec ID/Info                            : UTF-8 Plain Text
  86. Duration                                 : 1 h 49 min
  87. Bit rate                                 : 52 b/s
  88. Frame rate                               : 0.206 FPS
  89. Count of elements                        : 1356
  90. Stream size                              : 41.9 KiB (0%)
  91. Title                                    : English [SRT]
  92. Language                                 : English
  93. Default                                  : Yes
  94. Forced                                   : No