The text below is selected, press Ctrl+C to copy to your clipboard. (⌘+C on Mac) No line numbers will be copied.
Suicide Squad (2016) TC 2160p...

16th January 2023 12:16:24 PM | Views: 9
  1. Format                                   : Matroska
  2. Format version                           : Version 4
  3. File size                                : 47.3 GiB
  4. Duration                                 : 2 h 2 min
  5. Overall bit rate mode                    : Variable
  6. Overall bit rate                         : 55.1 Mb/s
  7. Movie name                               : Suicide Squad (2016) TC 2160p UHD BluRay REMUX x265 10bit HDR DV HEVC Dual Audio [Hindi HDTV DDP2.0 + English DTS-HD MA 7.1] ESub 47.3GB [MoviezAddiction]
  8. Encoded date                             : UTC 2023-01-16 03:08:47
  9. Writing application                      : mkvmerge v72.0.0 ('Minuano (Six-eight)') 64-bit
  10. Writing library                          : libebml v1.4.4 + libmatroska v1.7.1
  11.  
  12. Video
  13. ID                                       : 1
  14. Format                                   : HEVC
  15. Format/Info                              : High Efficiency Video Coding
  16. Format profile                           : Main [email protected]@High
  17. HDR format                               : Dolby Vision, Version 1.0, dvhe.08.06, BL+RPU, HDR10 compatible / SMPTE ST 2086, HDR10 compatible
  18. Codec ID                                 : V_MPEGH/ISO/HEVC
  19. Duration                                 : 2 h 2 min
  20. Bit rate                                 : 51.0 Mb/s
  21. Width                                    : 3 840 pixels
  22. Height                                   : 2 160 pixels
  23. Display aspect ratio                     : 16:9
  24. Frame rate mode                          : Constant
  25. Frame rate                               : 23.976 (24000/1001) FPS
  26. Color space                              : YUV
  27. Chroma subsampling                       : 4:2:0 (Type 2)
  28. Bit depth                                : 10 bits
  29. Bits/(Pixel*Frame)                       : 0.257
  30. Stream size                              : 43.8 GiB (93%)
  31. Writing library                          : ATEME Titan File 3.7.6 (4.7.6.101)
  32. Default                                  : Yes
  33. Forced                                   : No
  34. Color range                              : Limited
  35. Color primaries                          : BT.2020
  36. Transfer characteristics                 : PQ
  37. Matrix coefficients                      : BT.2020 non-constant
  38. Mastering display color primaries        : Display P3
  39. Mastering display luminance              : min: 0.0050 cd/m2, max: 4000 cd/m2
  40. Maximum Content Light Level              : 902 cd/m2
  41. Maximum Frame-Average Light Level        : 182 cd/m2
  42.  
  43. Audio #1
  44. ID                                       : 2
  45. Format                                   : E-AC-3
  46. Format/Info                              : Enhanced AC-3
  47. Commercial name                          : Dolby Digital Plus
  48. Codec ID                                 : A_EAC3
  49. Duration                                 : 2 h 2 min
  50. Bit rate mode                            : Constant
  51. Bit rate                                 : 384 kb/s
  52. Channel(s)                               : 2 channels
  53. Channel layout                           : L R
  54. Sampling rate                            : 48.0 kHz
  55. Frame rate                               : 31.250 FPS (1536 SPF)
  56. Compression mode                         : Lossy
  57. Stream size                              : 338 MiB (1%)
  58. Title                                    : Hindi
  59. Language                                 : Hindi
  60. Service kind                             : Complete Main
  61. Default                                  : Yes
  62. Forced                                   : No
  63.  
  64. Audio #2
  65. ID                                       : 3
  66. Format                                   : DTS XLL
  67. Format/Info                              : Digital Theater Systems
  68. Commercial name                          : DTS-HD Master Audio
  69. Codec ID                                 : A_DTS
  70. Duration                                 : 2 h 2 min
  71. Bit rate mode                            : Variable
  72. Bit rate                                 : 3 690 kb/s
  73. Channel(s)                               : 8 channels
  74. Channel layout                           : C L R LFE Lb Rb Lss Rss
  75. Sampling rate                            : 48.0 kHz
  76. Frame rate                               : 93.750 FPS (512 SPF)
  77. Bit depth                                : 24 bits
  78. Compression mode                         : Lossless
  79. Stream size                              : 3.17 GiB (7%)
  80. Title                                    : English
  81. Language                                 : English
  82. Default                                  : No
  83. Forced                                   : No
  84.  
  85. Text
  86. ID                                       : 4
  87. Format                                   : PGS
  88. Codec ID                                 : S_HDMV/PGS
  89. Codec ID/Info                            : Picture based subtitle format used on BDs/HD-DVDs
  90. Duration                                 : 2 h 2 min
  91. Bit rate                                 : 30.5 kb/s
  92. Frame rate                               : 0.440 FPS
  93. Count of elements                        : 3228
  94. Stream size                              : 26.7 MiB (0%)
  95. Title                                    : English [PGS]
  96. Language                                 : English
  97. Default                                  : Yes
  98. Forced                                   : No
  99.  
  100. Menu
  101. 00:00:00.000                             : en:Chapter 1
  102. 00:09:07.505                             : en:Chapter 2
  103. 00:19:03.726                             : en:Chapter 3
  104. 00:29:27.140                             : en:Chapter 4
  105. 00:39:17.313                             : en:Chapter 5
  106. 00:50:21.227                             : en:Chapter 6
  107. 01:00:10.106                             : en:Chapter 7
  108. 01:11:46.928                             : en:Chapter 8
  109. 01:22:46.128                             : en:Chapter 9
  110. 01:32:01.099                             : en:Chapter 10
  111. 01:39:21.831                             : en:Chapter 11
  112. 01:52:27.991                             : en:Chapter 12