The text below is selected, press Ctrl+C to copy to your clipboard. (⌘+C on Mac) No line numbers will be copied.
Suicide Squad (2016) EXTENDED 1080p...

16th January 2023 02:58:20 PM | Views: 23
  1. Format                                   : Matroska
  2. Format version                           : Version 4
  3. File size                                : 7.51 GiB
  4. Duration                                 : 2 h 14 min
  5. Overall bit rate mode                    : Variable
  6. Overall bit rate                         : 7 990 kb/s
  7. Movie name                               : Suicide Squad (2016) EXTENDED 1080p BluRay x264 Dual Audio [Hindi SDTV-DL DD2.0 + English TrueHD 7.1 Atmos] ESub 7.50GB [MoviezAddiction]
  8. Encoded date                             : UTC 2023-01-16 02:29:51
  9. Writing application                      : mkvmerge v72.0.0 ('Minuano (Six-eight)') 64-bit
  10. Writing library                          : libebml v1.4.4 + libmatroska v1.7.1
  11.  
  12. Video
  13. ID                                       : 1
  14. Format                                   : AVC
  15. Format/Info                              : Advanced Video Codec
  16. Format profile                           : [email protected]
  17. Format settings                          : CABAC / 5 Ref Frames
  18. Format settings, CABAC                   : Yes
  19. Format settings, Reference frames        : 5 frames
  20. Codec ID                                 : V_MPEG4/ISO/AVC
  21. Duration                                 : 2 h 14 min
  22. Bit rate                                 : 4 000 kb/s
  23. Width                                    : 1 920 pixels
  24. Height                                   : 800 pixels
  25. Display aspect ratio                     : 2.40:1
  26. Frame rate mode                          : Variable
  27. Frame rate                               : 23.976 (24000/1001) FPS
  28. Color space                              : YUV
  29. Chroma subsampling                       : 4:2:0
  30. Bit depth                                : 8 bits
  31. Scan type                                : Progressive
  32. Bits/(Pixel*Frame)                       : 0.109
  33. Stream size                              : 3.76 GiB (50%)
  34. Default                                  : Yes
  35. Forced                                   : No
  36.  
  37. Audio #1
  38. ID                                       : 2
  39. Format                                   : AAC LC
  40. Format/Info                              : Advanced Audio Codec Low Complexity
  41. Codec ID                                 : A_AAC-2
  42. Duration                                 : 2 h 14 min
  43. Bit rate                                 : 128 kb/s
  44. Channel(s)                               : 2 channels
  45. Channel layout                           : L R
  46. Sampling rate                            : 48.0 kHz
  47. Frame rate                               : 46.875 FPS (1024 SPF)
  48. Compression mode                         : Lossy
  49. Stream size                              : 123 MiB (2%)
  50. Title                                    : Hindi
  51. Language                                 : Hindi
  52. Default                                  : Yes
  53. Forced                                   : No
  54.  
  55. Audio #2
  56. ID                                       : 3
  57. Format                                   : MLP FBA 16-ch
  58. Format/Info                              : Meridian Lossless Packing FBA with 16-channel presentation
  59. Commercial name                          : Dolby TrueHD with Dolby Atmos
  60. Codec ID                                 : A_TRUEHD
  61. Duration                                 : 2 h 14 min
  62. Bit rate mode                            : Variable
  63. Bit rate                                 : 3 758 kb/s
  64. Maximum bit rate                         : 5 976 kb/s
  65. Channel(s)                               : 8 channels
  66. Channel layout                           : L R C LFE Ls Rs Lb Rb
  67. Sampling rate                            : 48.0 kHz
  68. Frame rate                               : 1 200.000 FPS (40 SPF)
  69. Compression mode                         : Lossless
  70. Stream size                              : 3.53 GiB (47%)
  71. Title                                    : English
  72. Language                                 : English
  73. Default                                  : No
  74. Forced                                   : No
  75. Number of dynamic objects                : 11
  76. Bed channel count                        : 1 channel
  77. Bed channel configuration                : LFE
  78.  
  79. Text
  80. ID                                       : 4
  81. Format                                   : PGS
  82. Codec ID                                 : S_HDMV/PGS
  83. Codec ID/Info                            : Picture based subtitle format used on BDs/HD-DVDs
  84. Duration                                 : 2 h 13 min
  85. Bit rate                                 : 33.1 kb/s
  86. Frame rate                               : 0.454 FPS
  87. Count of elements                        : 3648
  88. Stream size                              : 31.8 MiB (0%)
  89. Title                                    : English [PGS]
  90. Language                                 : English
  91. Default                                  : Yes
  92. Forced                                   : No
  93.  
  94. Menu
  95. 00:00:00.000                             : en:00:00:00.000
  96. 00:09:08.506                             : en:00:09:08.506
  97. 00:20:22.972                             : en:00:20:22.972
  98. 00:31:14.706                             : en:00:31:14.706
  99. 00:41:04.879                             : en:00:41:04.879
  100. 00:52:21.805                             : en:00:52:21.805
  101. 01:04:48.843                             : en:01:04:48.843
  102. 01:21:12.743                             : en:01:21:12.743
  103. 01:32:11.943                             : en:01:32:11.943
  104. 01:42:57.671                             : en:01:42:57.671
  105. 01:50:58.652                             : en:01:50:58.652
  106. 02:04:04.812                             : en:02:04:04.812