The text below is selected, press Ctrl+C to copy to your clipboard. (⌘+C on Mac) No line numbers will be copied.
The Wonder (2022) 1080p NF...

17th November 2022 08:46:42 AM | Views: 18
  1. Format                                   : Matroska
  2. Format version                           : Version 4
  3. File size                                : 2.25 GiB
  4. Duration                                 : 1 h 49 min
  5. Overall bit rate                         : 2 934 kb/s
  6. Movie name                               : The Wonder (2022) 1080p NF WEB-DL x265 10bit DV HEVC Dual Audio [Hindi DDP5.1 + English DDP5.1 Atmos] ESub 2.24GB [MoviezAddiction.life]
  7. Encoded date                             : UTC 2022-11-16 15:12:32
  8. Writing application                      : mkvmerge v72.0.0 ('Minuano (Six-eight)') 64-bit
  9. Writing library                          : libebml v1.4.4 + libmatroska v1.7.1
  10.  
  11. Video
  12. ID                                       : 1
  13. Format                                   : HEVC
  14. Format/Info                              : High Efficiency Video Coding
  15. Format profile                           : Main [email protected]@Main
  16. HDR format                               : Dolby Vision, Version 1.0, dvhe.05.03, BL+RPU
  17. Codec ID                                 : V_MPEGH/ISO/HEVC
  18. Duration                                 : 1 h 49 min
  19. Bit rate                                 : 1 526 kb/s
  20. Width                                    : 1 920 pixels
  21. Height                                   : 1 080 pixels
  22. Display aspect ratio                     : 16:9
  23. Frame rate mode                          : Constant
  24. Frame rate                               : 24.000 FPS
  25. Color space                              : YUV
  26. Chroma subsampling                       : 4:2:0
  27. Bit depth                                : 10 bits
  28. Bits/(Pixel*Frame)                       : 0.031
  29. Stream size                              : 1.17 GiB (52%)
  30. Default                                  : Yes
  31. Forced                                   : No
  32. Color range                              : Full
  33.  
  34. Audio #1
  35. ID                                       : 2
  36. Format                                   : E-AC-3
  37. Format/Info                              : Enhanced AC-3
  38. Commercial name                          : Dolby Digital Plus
  39. Codec ID                                 : A_EAC3
  40. Duration                                 : 1 h 49 min
  41. Bit rate mode                            : Constant
  42. Bit rate                                 : 640 kb/s
  43. Channel(s)                               : 6 channels
  44. Channel layout                           : L R C LFE Ls Rs
  45. Sampling rate                            : 48.0 kHz
  46. Frame rate                               : 31.250 FPS (1536 SPF)
  47. Compression mode                         : Lossy
  48. Stream size                              : 502 MiB (22%)
  49. Title                                    : Hindi
  50. Language                                 : Hindi
  51. Service kind                             : Complete Main
  52. Default                                  : Yes
  53. Forced                                   : No
  54.  
  55. Audio #2
  56. ID                                       : 3
  57. Format                                   : E-AC-3 JOC
  58. Format/Info                              : Enhanced AC-3 with Joint Object Coding
  59. Commercial name                          : Dolby Digital Plus with Dolby Atmos
  60. Codec ID                                 : A_EAC3
  61. Duration                                 : 1 h 49 min
  62. Bit rate mode                            : Constant
  63. Bit rate                                 : 768 kb/s
  64. Channel(s)                               : 6 channels
  65. Channel layout                           : L R C LFE Ls Rs
  66. Sampling rate                            : 48.0 kHz
  67. Frame rate                               : 31.250 FPS (1536 SPF)
  68. Compression mode                         : Lossy
  69. Stream size                              : 603 MiB (26%)
  70. Title                                    : English
  71. Language                                 : English
  72. Service kind                             : Complete Main
  73. Default                                  : No
  74. Forced                                   : No
  75. Complexity index                         : 16
  76. Number of dynamic objects                : 15
  77. Bed channel count                        : 1 channel
  78. Bed channel configuration                : LFE
  79.  
  80. Text
  81. ID                                       : 4
  82. Format                                   : UTF-8
  83. Codec ID                                 : S_TEXT/UTF8
  84. Codec ID/Info                            : UTF-8 Plain Text
  85. Duration                                 : 1 h 41 min
  86. Bit rate                                 : 36 b/s
  87. Frame rate                               : 0.164 FPS
  88. Count of elements                        : 1001
  89. Stream size                              : 26.9 KiB (0%)
  90. Title                                    : English [SRT]
  91. Language                                 : English
  92. Default                                  : Yes
  93. Forced                                   : No