The text below is selected, press Ctrl+C to copy to your clipboard. (⌘+C on Mac) No line numbers will be copied.
Dark (2020) Season 3 1080p

29th June 2020 09:18:06 AM | Views: 26
  1. General
  2. Unique ID                                : 99490175768283757789908658985283138437 (0x4AD91C61DFE9597B30F0CF355918B385)
  3. Complete name                            : S:\Dark Season 03 working\1080p\Dark (2020) S03E01 [DejaVu] 1080p WEB-DL x264 [English DD5.1] ESub - [Www.MoviezAddiction.Site].mkv
  4. Format                                   : Matroska
  5. Format version                           : Version 4
  6. File size                                : 1.35 GiB
  7. Duration                                 : 1 h 2 min
  8. Overall bit rate                         : 3 114 kb/s
  9. Movie name                               : Dark (2020) S03E01 [DejaVu] 1080p WEB-DL x264 [English DD5.1] ESub - [Www.MoviezAddiction.Site]
  10. Encoded date                             : UTC 2020-06-29 01:49:13
  11. Writing application                      : mkvmerge v47.0.0 ('Black Flag') 64-bit
  12. Writing library                          : libebml v1.3.10 + libmatroska v1.5.2
  13.  
  14. Video
  15. ID                                       : 1
  16. Format                                   : AVC
  17. Format/Info                              : Advanced Video Codec
  18. Format profile                           : [email protected]
  19. Format settings                          : CABAC / 4 Ref Frames
  20. Format settings, CABAC                   : Yes
  21. Format settings, Reference frames        : 4 frames
  22. Codec ID                                 : V_MPEG4/ISO/AVC
  23. Duration                                 : 1 h 2 min
  24. Bit rate                                 : 2 501 kb/s
  25. Width                                    : 1 920 pixels
  26. Height                                   : 974 pixels
  27. Display aspect ratio                     : 1.971
  28. Frame rate mode                          : Constant
  29. Frame rate                               : 24.000 FPS
  30. Color space                              : YUV
  31. Chroma subsampling                       : 4:2:0
  32. Bit depth                                : 8 bits
  33. Scan type                                : Progressive
  34. Bits/(Pixel*Frame)                       : 0.056
  35. Stream size                              : 1.07 GiB (79%)
  36. Title                                    : [Www.MoviezAddiction.Site]
  37. Writing library                          : x264 core 155 r2893 b00bcaf
  38. Encoding settings                        : cabac=1 / ref=4 / deblock=1:0:0 / analyse=0x1:0x111 / me=hex / subme=8 / psy=1 / psy_rd=1.00:0.00 / mixed_ref=1 / me_range=16 / chroma_me=1 / trellis=2 / 8x8dct=0 / cqm=0 / deadzone=21,11 / fast_pskip=1 / chroma_qp_offset=-2 / threads=12 / lookahead_threads=2 / sliced_threads=0 / nr=0 / decimate=1 / interlaced=0 / bluray_compat=0 / constrained_intra=0 / bframes=3 / b_pyramid=2 / b_adapt=1 / b_bias=0 / direct=3 / weightb=1 / open_gop=0 / weightp=2 / keyint=240 / keyint_min=24 / scenecut=40 / intra_refresh=0 / rc_lookahead=50 / rc=abr / mbtree=1 / bitrate=2501 / ratetol=1.0 / qcomp=0.60 / qpmin=0 / qpmax=69 / qpstep=4 / vbv_maxrate=20000 / vbv_bufsize=25000 / nal_hrd=none / filler=0 / ip_ratio=1.40 / aq=1:1.00
  39. Default                                  : Yes
  40. Forced                                   : No
  41. Color range                              : Limited
  42. Color primaries                          : BT.709
  43. Transfer characteristics                 : BT.709
  44. Matrix coefficients                      : BT.709
  45.  
  46. Audio
  47. ID                                       : 2
  48. Format                                   : E-AC-3
  49. Format/Info                              : Enhanced AC-3
  50. Commercial name                          : Dolby Digital Plus
  51. Codec ID                                 : A_EAC3
  52. Duration                                 : 1 h 2 min
  53. Bit rate mode                            : Constant
  54. Bit rate                                 : 640 kb/s
  55. Channel(s)                               : 6 channels
  56. Channel layout                           : L R C LFE Ls Rs
  57. Sampling rate                            : 48.0 kHz
  58. Frame rate                               : 31.250 FPS (1536 SPF)
  59. Compression mode                         : Lossy
  60. Stream size                              : 284 MiB (21%)
  61. Title                                    : [Www.MoviezAddiction.Site]
  62. Language                                 : English
  63. Service kind                             : Complete Main
  64. Default                                  : No
  65. Forced                                   : No
  66.  
  67. Text
  68. ID                                       : 3
  69. Format                                   : UTF-8
  70. Codec ID                                 : S_TEXT/UTF8
  71. Codec ID/Info                            : UTF-8 Plain Text
  72. Duration                                 : 1 h 1 min
  73. Bit rate                                 : 26 b/s
  74. Count of elements                        : 449
  75. Stream size                              : 11.8 KiB (0%)
  76. Title                                    : [Www.MoviezAddiction.Site]
  77. Language                                 : English
  78. Default                                  : No
  79. Forced                                   : No