The text below is selected, press Ctrl+C to copy to your clipboard. (⌘+C on Mac) No line numbers will be copied.
The Room (2019) 720p Bluray...

16th September 2020 06:46:13 AM | Views: 20
  1. Format                                   : Matroska
  2. Format version                           : Version 4
  3. File size                                : 1 009 MiB
  4. Duration                                 : 1 h 39 min
  5. Overall bit rate                         : 1 422 kb/s
  6. Movie name                               : The Room (2019) 720p Bluray x264 Dual Audio [ Hindi DD5.1 + English DD5.1 ] ESub [www.MoviezAddiction.space]
  7. Encoded date                             : UTC 2020-09-16 04:20:59
  8. Writing application                      : mkvmerge v48.0.0 ('Fortress Around Your Heart') 64-bit
  9. Writing library                          : libebml v1.4.0 + libmatroska v1.6.0
  10.  
  11. Video
  12. ID                                       : 2
  13. Format                                   : AVC
  14. Format/Info                              : Advanced Video Codec
  15. Format profile                           : [email protected]
  16. Format settings                          : CABAC / 8 Ref Frames
  17. Format settings, CABAC                   : Yes
  18. Format settings, Reference frames        : 8 frames
  19. Codec ID                                 : V_MPEG4/ISO/AVC
  20. Duration                                 : 1 h 39 min
  21. Bit rate                                 : 1 042 kb/s
  22. Width                                    : 1 280 pixels
  23. Height                                   : 536 pixels
  24. Display aspect ratio                     : 2.40:1
  25. Frame rate mode                          : Constant
  26. Frame rate                               : 24.000 FPS
  27. Color space                              : YUV
  28. Chroma subsampling                       : 4:2:0
  29. Bit depth                                : 8 bits
  30. Scan type                                : Progressive
  31. Bits/(Pixel*Frame)                       : 0.063
  32. Stream size                              : 738 MiB (73%)
  33. Title                                    : [www.MoviezAddiction.space]
  34. Writing library                          : x264 core 155 r2901 7d0ff22
  35. Encoding settings                        : cabac=1 / ref=8 / deblock=1:-2:-2 / analyse=0x3:0x133 / me=umh / subme=10 / psy=1 / psy_rd=1.00:0.15 / mixed_ref=1 / me_range=32 / chroma_me=1 / trellis=2 / 8x8dct=1 / cqm=0 / deadzone=21,11 / fast_pskip=1 / chroma_qp_offset=-3 / threads=12 / lookahead_threads=1 / sliced_threads=0 / nr=0 / decimate=1 / interlaced=0 / bluray_compat=0 / constrained_intra=0 / bframes=3 / b_pyramid=2 / b_adapt=2 / b_bias=0 / direct=3 / weightb=1 / open_gop=0 / weightp=2 / keyint=250 / keyint_min=24 / scenecut=40 / intra_refresh=0 / rc_lookahead=60 / rc=2pass / mbtree=1 / bitrate=1042 / ratetol=1.0 / qcomp=0.60 / qpmin=0 / qpmax=69 / qpstep=4 / cplxblur=20.0 / qblur=0.5 / vbv_maxrate=15500 / vbv_bufsize=16000 / nal_hrd=none / filler=0 / ip_ratio=1.40 / aq=3:0.80
  36. Default                                  : Yes
  37. Forced                                   : No
  38.  
  39. Audio #1
  40. ID                                       : 3
  41. Format                                   : AAC LC
  42. Format/Info                              : Advanced Audio Codec Low Complexity
  43. Codec ID                                 : A_AAC-2
  44. Duration                                 : 1 h 39 min
  45. Bit rate                                 : 192 kb/s
  46. Channel(s)                               : 6 channels
  47. Channel layout                           : C L R Ls Rs LFE
  48. Sampling rate                            : 48.0 kHz
  49. Frame rate                               : 46.875 FPS (1024 SPF)
  50. Compression mode                         : Lossy
  51. Stream size                              : 134 MiB (13%)
  52. Title                                    : [www.MoviezAddiction.space]
  53. Language                                 : English
  54. Default                                  : No
  55. Forced                                   : No
  56.  
  57. Audio #2
  58. ID                                       : 4
  59. Format                                   : AAC LC
  60. Format/Info                              : Advanced Audio Codec Low Complexity
  61. Codec ID                                 : A_AAC-2
  62. Duration                                 : 1 h 39 min
  63. Bit rate                                 : 192 kb/s
  64. Channel(s)                               : 6 channels
  65. Channel layout                           : C L R Ls Rs LFE
  66. Sampling rate                            : 48.0 kHz
  67. Frame rate                               : 46.875 FPS (1024 SPF)
  68. Compression mode                         : Lossy
  69. Delay relative to video                  : 11 ms
  70. Stream size                              : 134 MiB (13%)
  71. Title                                    : [www.MoviezAddiction.space]
  72. Language                                 : Hindi
  73. Default                                  : Yes
  74. Forced                                   : Yes
  75.  
  76. Text
  77. ID                                       : 1
  78. Format                                   : UTF-8
  79. Codec ID                                 : S_TEXT/UTF8
  80. Codec ID/Info                            : UTF-8 Plain Text
  81. Duration                                 : 1 h 38 min
  82. Bit rate                                 : 29 b/s
  83. Count of elements                        : 1219
  84. Stream size                              : 21.3 KiB (0%)
  85. Title                                    : [www.MoviezAddiction.space]
  86. Language                                 : English
  87. Default                                  : Yes
  88. Forced                                   : Yes