The text below is selected, press Ctrl+C to copy to your clipboard. (⌘+C on Mac) No line numbers will be copied.
The Thing (1982) 2160p UHD...

6th November 2022 04:09:28 PM | Views: 17
  1. Format                                   : Matroska
  2. Format version                           : Version 4
  3. File size                                : 31.8 GiB
  4. Duration                                 : 1 h 48 min
  5. Overall bit rate mode                    : Variable
  6. Overall bit rate                         : 41.9 Mb/s
  7. Movie name                               : The Thing (1982) 2160p UHD BluRay x265 10bit HDR HEVC Dual Audio [Hindi VCD DD2.0 + English DTS-X 7.1] ESub 31.7GB [MoviezAddiction.life]
  8. Encoded date                             : UTC 2022-11-06 09:00:15
  9. Writing application                      : mkvmerge v71.1.0 ('Fortitude') 64-bit
  10. Writing library                          : libebml v1.4.4 + libmatroska v1.7.1
  11.  
  12. Video
  13. ID                                       : 1
  14. Format                                   : HEVC
  15. Format/Info                              : High Efficiency Video Coding
  16. Format profile                           : Main [email protected]@High
  17. HDR format                               : SMPTE ST 2086, HDR10 compatible
  18. Codec ID                                 : V_MPEGH/ISO/HEVC
  19. Duration                                 : 1 h 48 min
  20. Bit rate                                 : 35.0 Mb/s
  21. Width                                    : 3 840 pixels
  22. Height                                   : 1 634 pixels
  23. Display aspect ratio                     : 2.35:1
  24. Frame rate mode                          : Constant
  25. Frame rate                               : 23.976 (24000/1001) FPS
  26. Color space                              : YUV
  27. Chroma subsampling                       : 4:2:0 (Type 2)
  28. Bit depth                                : 10 bits
  29. Bits/(Pixel*Frame)                       : 0.232
  30. Stream size                              : 26.5 GiB (83%)
  31. Default                                  : Yes
  32. Forced                                   : No
  33. Color range                              : Limited
  34. Color primaries                          : BT.2020
  35. Transfer characteristics                 : PQ
  36. Matrix coefficients                      : BT.2020 non-constant
  37. Mastering display color primaries        : Display P3
  38. Mastering display luminance              : min: 0.0050 cd/m2, max: 1000 cd/m2
  39. Maximum Content Light Level              : 1000 cd/m2
  40. Maximum Frame-Average Light Level        : 323 cd/m2
  41.  
  42. Audio #1
  43. ID                                       : 2
  44. Format                                   : AC-3
  45. Format/Info                              : Audio Coding 3
  46. Commercial name                          : Dolby Digital
  47. Codec ID                                 : A_AC3
  48. Duration                                 : 1 h 48 min
  49. Bit rate mode                            : Constant
  50. Bit rate                                 : 224 kb/s
  51. Channel(s)                               : 2 channels
  52. Channel layout                           : L R
  53. Sampling rate                            : 48.0 kHz
  54. Frame rate                               : 31.250 FPS (1536 SPF)
  55. Compression mode                         : Lossy
  56. Stream size                              : 174 MiB (1%)
  57. Title                                    : Hindi
  58. Language                                 : Hindi
  59. Service kind                             : Complete Main
  60. Default                                  : Yes
  61. Forced                                   : No
  62.  
  63. Audio #2
  64. ID                                       : 3
  65. ID in the original source medium         : 4352 (0x1100)
  66. Format                                   : DTS XLL X
  67. Format/Info                              : Digital Theater Systems
  68. Commercial name                          : DTS-HD Master Audio
  69. Codec ID                                 : A_DTS
  70. Duration                                 : 1 h 48 min
  71. Bit rate mode                            : Variable
  72. Bit rate                                 : 6 697 kb/s
  73. Channel(s)                               : 8 channels
  74. Channel(s)_Original                      : Object Based
  75. ChannelLayout_Original                   : Object Based
  76. Sampling rate                            : 48.0 kHz
  77. Frame rate                               : 93.750 FPS (512 SPF)
  78. Bit depth                                : 24 bits
  79. Stream size                              : 5.08 GiB (16%)
  80. Title                                    : English
  81. Language                                 : English
  82. Default                                  : No
  83. Forced                                   : No
  84. Original source medium                   : Blu-ray
  85.  
  86. Text
  87. ID                                       : 4
  88. ID in the original source medium         : 4768 (0x12A0)
  89. Format                                   : PGS
  90. Codec ID                                 : S_HDMV/PGS
  91. Codec ID/Info                            : Picture based subtitle format used on BDs/HD-DVDs
  92. Duration                                 : 1 h 37 min
  93. Bit rate                                 : 23.0 kb/s
  94. Frame rate                               : 0.260 FPS
  95. Count of elements                        : 1517
  96. Stream size                              : 16.0 MiB (0%)
  97. Title                                    : English [PGS]
  98. Language                                 : English
  99. Default                                  : Yes
  100. Forced                                   : No
  101. Original source medium                   : Blu-ray
  102.  
  103. Menu
  104. 00:00:00.000                             : en:Chapter 01
  105. 00:02:06.793                             : en:Chapter 02
  106. 00:04:33.773                             : en:Chapter 03
  107. 00:07:01.838                             : en:Chapter 04
  108. 00:10:23.247                             : en:Chapter 05
  109. 00:14:21.861                             : en:Chapter 06
  110. 00:15:48.155                             : en:Chapter 07
  111. 00:22:13.540                             : en:Chapter 08
  112. 00:24:49.446                             : en:Chapter 09
  113. 00:27:00.619                             : en:Chapter 10
  114. 00:30:12.769                             : en:Chapter 11
  115. 00:33:02.438                             : en:Chapter 12
  116. 00:34:14.719                             : en:Chapter 13
  117. 00:36:02.285                             : en:Chapter 14
  118. 00:37:21.280                             : en:Chapter 15
  119. 00:40:04.068                             : en:Chapter 16
  120. 00:41:43.626                             : en:Chapter 17
  121. 00:45:31.061                             : en:Chapter 18
  122. 00:46:30.746                             : en:Chapter 19
  123. 00:50:17.014                             : en:Chapter 20
  124. 00:54:43.029                             : en:Chapter 21
  125. 00:57:35.034                             : en:Chapter 22
  126. 00:59:07.710                             : en:Chapter 23
  127. 01:02:46.387                             : en:Chapter 24
  128. 01:05:27.381                             : en:Chapter 25
  129. 01:09:50.978                             : en:Chapter 26
  130. 01:14:22.291                             : en:Chapter 27
  131. 01:17:42.366                             : en:Chapter 28
  132. 01:18:43.635                             : en:Chapter 29
  133. 01:25:17.278                             : en:Chapter 30
  134. 01:26:39.903                             : en:Chapter 31
  135. 01:29:18.144                             : en:Chapter 32
  136. 01:31:13.968                             : en:Chapter 33
  137. 01:34:24.700                             : en:Chapter 34
  138. 01:37:18.332                             : en:Chapter 35
  139. 01:39:13.447                             : en:Chapter 36
  140. 01:42:08.205                             : en:Chapter 37