The text below is selected, press Ctrl+C to copy to your clipboard. (⌘+C on Mac) No line numbers will be copied.
Campus Diaries (2022) S01E01 1080p

8th January 2022 08:54:59 AM | Views: 15
  1. Format                                   : Matroska
  2. Format version                           : Version 4
  3. File size                                : 794 MiB
  4. Duration                                 : 38 min 25 s
  5. Overall bit rate                         : 2 889 kb/s
  6. Movie name                               : Campus Diaries (2022) S01E01 1080p WEB-DL x264 Hindi DD2.0 MSubs 793MB [www.MoviezAddiction.art]
  7. Encoded date                             : UTC 2022-01-07 00:39:16
  8. Writing application                      : mkvmerge v47.0.0 ('Black Flag') 64-bit
  9. Writing library                          : libebml v1.3.10 + libmatroska v1.5.2
  10.  
  11. Video
  12. ID                                       : 1
  13. Format                                   : AVC
  14. Format/Info                              : Advanced Video Codec
  15. Format profile                           : [email protected]
  16. Format settings                          : CABAC / 4 Ref Frames
  17. Format settings, CABAC                   : Yes
  18. Format settings, Reference frames        : 4 frames
  19. Codec ID                                 : V_MPEG4/ISO/AVC
  20. Duration                                 : 38 min 25 s
  21. Bit rate                                 : 2 765 kb/s
  22. Width                                    : 1 920 pixels
  23. Height                                   : 1 080 pixels
  24. Display aspect ratio                     : 16:9
  25. Frame rate mode                          : Constant
  26. Frame rate                               : 25.000 FPS
  27. Color space                              : YUV
  28. Chroma subsampling                       : 4:2:0
  29. Bit depth                                : 8 bits
  30. Scan type                                : Progressive
  31. Bits/(Pixel*Frame)                       : 0.053
  32. Stream size                              : 760 MiB (96%)
  33. Title                                    : [www.MoviezAddiction.art]
  34. Default                                  : Yes
  35. Forced                                   : No
  36.  
  37. Audio
  38. ID                                       : 2
  39. Format                                   : AAC LC SBR
  40. Format/Info                              : Advanced Audio Codec Low Complexity with Spectral Band Replication
  41. Commercial name                          : HE-AAC
  42. Format settings                          : Explicit
  43. Codec ID                                 : A_AAC-2
  44. Duration                                 : 38 min 24 s
  45. Bit rate                                 : 122 kb/s
  46. Channel(s)                               : 2 channels
  47. Channel layout                           : L R
  48. Sampling rate                            : 96.0 kHz
  49. Frame rate                               : 46.875 FPS (2048 SPF)
  50. Compression mode                         : Lossy
  51. Stream size                              : 33.4 MiB (4%)
  52. Title                                    : [www.MoviezAddiction.art] - Hindi
  53. Language                                 : Hindi
  54. Default                                  : Yes
  55. Forced                                   : No
  56.  
  57. Text #1
  58. ID                                       : 3
  59. Format                                   : UTF-8
  60. Codec ID                                 : S_TEXT/UTF8
  61. Codec ID/Info                            : UTF-8 Plain Text
  62. Duration                                 : 35 min 32 s
  63. Bit rate                                 : 222 b/s
  64. Count of elements                        : 718
  65. Stream size                              : 57.9 KiB (0%)
  66. Title                                    : [www.MoviezAddiction.art] - Hindi [SRT]
  67. Language                                 : Hindi
  68. Default                                  : Yes
  69. Forced                                   : No
  70.  
  71. Text #2
  72. ID                                       : 4
  73. Format                                   : UTF-8
  74. Codec ID                                 : S_TEXT/UTF8
  75. Codec ID/Info                            : UTF-8 Plain Text
  76. Duration                                 : 34 min 4 s
  77. Bit rate                                 : 89 b/s
  78. Count of elements                        : 676
  79. Stream size                              : 22.4 KiB (0%)
  80. Title                                    : [www.MoviezAddiction.art] - English [SRT]
  81. Language                                 : English
  82. Default                                  : No
  83. Forced                                   : No