The text below is selected, press Ctrl+C to copy to your clipboard. (⌘+C on Mac) No line numbers will be copied.
The Croods (2013) 1080p BluRay...

23rd November 2022 04:23:42 AM | Views: 22
  1. Format                                   : Matroska
  2. Format version                           : Version 4
  3. File size                                : 19.4 GiB
  4. Duration                                 : 1 h 38 min
  5. Overall bit rate mode                    : Variable
  6. Overall bit rate                         : 28.2 Mb/s
  7. Movie name                               : The Croods (2013) 1080p BluRay REMUX x264 Dual Audio [Hindi DTS 5.1 + English DTS-X 7.1] ESub 19.4GB [MoviezAddiction.life]
  8. Encoded date                             : UTC 2022-11-22 02:59:23
  9. Writing application                      : mkvmerge v72.0.0 ('Minuano (Six-eight)') 64-bit
  10. Writing library                          : libebml v1.4.4 + libmatroska v1.7.1
  11.  
  12. Video
  13. ID                                       : 1
  14. Format                                   : AVC
  15. Format/Info                              : Advanced Video Codec
  16. Format profile                           : [email protected]
  17. Format settings                          : CABAC / 4 Ref Frames
  18. Format settings, CABAC                   : Yes
  19. Format settings, Reference frames        : 4 frames
  20. Codec ID                                 : V_MPEG4/ISO/AVC
  21. Duration                                 : 1 h 38 min
  22. Bit rate mode                            : Variable
  23. Bit rate                                 : 23.8 Mb/s
  24. Maximum bit rate                         : 30.5 Mb/s
  25. Width                                    : 1 920 pixels
  26. Height                                   : 1 080 pixels
  27. Display aspect ratio                     : 16:9
  28. Frame rate mode                          : Constant
  29. Frame rate                               : 23.976 (24000/1001) FPS
  30. Color space                              : YUV
  31. Chroma subsampling                       : 4:2:0
  32. Bit depth                                : 8 bits
  33. Scan type                                : Progressive
  34. Bits/(Pixel*Frame)                       : 0.479
  35. Stream size                              : 16.4 GiB (84%)
  36. Default                                  : Yes
  37. Forced                                   : No
  38.  
  39. Audio #1
  40. ID                                       : 2
  41. Format                                   : DTS
  42. Format/Info                              : Digital Theater Systems
  43. Codec ID                                 : A_DTS
  44. Duration                                 : 1 h 38 min
  45. Bit rate mode                            : Constant
  46. Bit rate                                 : 768 kb/s
  47. Channel(s)                               : 6 channels
  48. Channel layout                           : C L R Ls Rs LFE
  49. Sampling rate                            : 48.0 kHz
  50. Frame rate                               : 93.750 FPS (512 SPF)
  51. Bit depth                                : 24 bits
  52. Compression mode                         : Lossy
  53. Delay relative to video                  : -1 s 708 ms
  54. Stream size                              : 542 MiB (3%)
  55. Title                                    : Hindi
  56. Language                                 : Hindi
  57. Default                                  : Yes
  58. Forced                                   : No
  59.  
  60. Audio #2
  61. ID                                       : 3
  62. Format                                   : DTS XLL X
  63. Format/Info                              : Digital Theater Systems
  64. Commercial name                          : DTS-HD Master Audio
  65. Codec ID                                 : A_DTS
  66. Duration                                 : 1 h 38 min
  67. Bit rate mode                            : Variable
  68. Bit rate                                 : 3 579 kb/s
  69. Channel(s)                               : 8 channels
  70. Channel(s)_Original                      : Object Based
  71. ChannelLayout_Original                   : Object Based
  72. Sampling rate                            : 48.0 kHz
  73. Frame rate                               : 93.750 FPS (512 SPF)
  74. Bit depth                                : 24 bits
  75. Delay relative to video                  : -1 s 708 ms
  76. Stream size                              : 2.46 GiB (13%)
  77. Title                                    : English
  78. Language                                 : English
  79. Default                                  : No
  80. Forced                                   : No
  81.  
  82. Text
  83. ID                                       : 4
  84. Format                                   : PGS
  85. Codec ID                                 : S_HDMV/PGS
  86. Codec ID/Info                            : Picture based subtitle format used on BDs/HD-DVDs
  87. Duration                                 : 1 h 28 min
  88. Bit rate                                 : 25.1 kb/s
  89. Frame rate                               : 0.383 FPS
  90. Count of elements                        : 2042
  91. Stream size                              : 15.9 MiB (0%)
  92. Title                                    : English [PGS]
  93. Language                                 : English
  94. Default                                  : Yes
  95. Forced                                   : No
  96.  
  97. Menu
  98. 00:00:01.708                             : en:Chapter 1
  99. 00:02:38.364                             : en:Chapter 2
  100. 00:04:55.126                             : en:Chapter 3
  101. 00:09:04.625                             : en:Chapter 4
  102. 00:12:17.735                             : en:Chapter 5
  103. 00:14:08.179                             : en:Chapter 6
  104. 00:18:36.405                             : en:Chapter 7
  105. 00:22:00.359                             : en:Chapter 8
  106. 00:23:28.113                             : en:Chapter 9
  107. 00:26:53.151                             : en:Chapter 10
  108. 00:28:40.508                             : en:Chapter 11
  109. 00:30:29.033                             : en:Chapter 12
  110. 00:32:52.010                             : en:Chapter 13
  111. 00:36:06.746                             : en:Chapter 14
  112. 00:38:36.938                             : en:Chapter 15
  113. 00:41:37.910                             : en:Chapter 16
  114. 00:44:42.219                             : en:Chapter 17
  115. 00:48:06.006                             : en:Chapter 18
  116. 00:52:14.337                             : en:Chapter 19
  117. 00:55:20.857                             : en:Chapter 20
  118. 01:00:18.154                             : en:Chapter 21
  119. 01:04:01.461                             : en:Chapter 22
  120. 01:05:52.113                             : en:Chapter 23
  121. 01:08:47.413                             : en:Chapter 24
  122. 01:10:50.661                             : en:Chapter 25
  123. 01:12:40.521                             : en:Chapter 26
  124. 01:14:05.022                             : en:Chapter 27
  125. 01:19:51.952                             : en:Chapter 28
  126. 01:23:13.236                             : en:Chapter 29
  127. 01:25:20.113                             : en:Chapter 30
  128. 01:28:07.697                             : en:Chapter 31
  129. 01:30:05.606                             : en:Chapter 32