The text below is selected, press Ctrl+C to copy to your clipboard. (⌘+C on Mac) No line numbers will be copied.
The Thing (2011) 1080p BluRay...

7th November 2022 08:01:53 AM | Views: 18
  1. Format                                   : Matroska
  2. Format version                           : Version 4
  3. File size                                : 2.65 GiB
  4. Duration                                 : 1 h 43 min
  5. Overall bit rate                         : 3 679 kb/s
  6. Movie name                               : The Thing (2011) 1080p BluRay x265 10bit HEVC Dual Audio [Hindi DVD DD5.1 + English DTS 5.1] ESub 2.64GB [MoviezAddiction.life]
  7. Encoded date                             : UTC 2022-11-07 05:44:29
  8. Writing application                      : mkvmerge v71.1.0 ('Fortitude') 64-bit
  9. Writing library                          : libebml v1.4.4 + libmatroska v1.7.1
  10.  
  11. Video
  12. ID                                       : 1
  13. Format                                   : HEVC
  14. Format/Info                              : High Efficiency Video Coding
  15. Format profile                           : Main [email protected]@Main
  16. Codec ID                                 : V_MPEGH/ISO/HEVC
  17. Duration                                 : 1 h 43 min
  18. Bit rate                                 : 1 701 kb/s
  19. Width                                    : 1 920 pixels
  20. Height                                   : 800 pixels
  21. Display aspect ratio                     : 2.40:1
  22. Frame rate mode                          : Variable
  23. Frame rate                               : 23.976 (24000/1001) FPS
  24. Color space                              : YUV
  25. Chroma subsampling                       : 4:2:0
  26. Bit depth                                : 10 bits
  27. Bits/(Pixel*Frame)                       : 0.046
  28. Stream size                              : 1.22 GiB (46%)
  29. Default                                  : Yes
  30. Forced                                   : No
  31.  
  32. Audio #1
  33. ID                                       : 2
  34. Format                                   : AC-3
  35. Format/Info                              : Audio Coding 3
  36. Commercial name                          : Dolby Digital
  37. Codec ID                                 : A_AC3
  38. Duration                                 : 1 h 43 min
  39. Bit rate mode                            : Constant
  40. Bit rate                                 : 448 kb/s
  41. Channel(s)                               : 6 channels
  42. Channel layout                           : L R C LFE Ls Rs
  43. Sampling rate                            : 48.0 kHz
  44. Frame rate                               : 31.250 FPS (1536 SPF)
  45. Compression mode                         : Lossy
  46. Delay relative to video                  : 128 ms
  47. Stream size                              : 330 MiB (12%)
  48. Title                                    : Hindi
  49. Language                                 : Hindi
  50. Service kind                             : Complete Main
  51. Default                                  : Yes
  52. Forced                                   : No
  53.  
  54. Audio #2
  55. ID                                       : 3
  56. Format                                   : DTS
  57. Format/Info                              : Digital Theater Systems
  58. Codec ID                                 : A_DTS
  59. Duration                                 : 1 h 43 min
  60. Bit rate mode                            : Constant
  61. Bit rate                                 : 1 509 kb/s
  62. Channel(s)                               : 6 channels
  63. Channel layout                           : C L R Ls Rs LFE
  64. Sampling rate                            : 48.0 kHz
  65. Frame rate                               : 93.750 FPS (512 SPF)
  66. Bit depth                                : 24 bits
  67. Compression mode                         : Lossy
  68. Stream size                              : 1.09 GiB (41%)
  69. Title                                    : English
  70. Language                                 : English
  71. Default                                  : No
  72. Forced                                   : No
  73.  
  74. Text
  75. ID                                       : 4
  76. Format                                   : PGS
  77. Codec ID                                 : S_HDMV/PGS
  78. Codec ID/Info                            : Picture based subtitle format used on BDs/HD-DVDs
  79. Duration                                 : 1 h 36 min
  80. Bit rate                                 : 19.9 kb/s
  81. Frame rate                               : 0.295 FPS
  82. Count of elements                        : 1702
  83. Stream size                              : 13.7 MiB (1%)
  84. Title                                    : English [PGS]
  85. Language                                 : English
  86. Default                                  : Yes
  87. Forced                                   : No
  88.  
  89. Menu
  90. 00:00:00.000                             : en:00:00:00.000
  91. 00:04:31.896                             : en:00:04:31.896
  92. 00:10:51.901                             : en:00:10:51.901
  93. 00:14:41.422                             : en:00:14:41.422
  94. 00:17:05.774                             : en:00:17:05.774
  95. 00:20:39.655                             : en:00:20:39.655
  96. 00:25:09.549                             : en:00:25:09.549
  97. 00:32:49.634                             : en:00:32:49.634
  98. 00:38:06.117                             : en:00:38:06.117
  99. 00:43:02.705                             : en:00:43:02.705
  100. 00:51:15.739                             : en:00:51:15.739
  101. 00:55:13.184                             : en:00:55:13.184
  102. 01:00:04.350                             : en:01:00:04.350
  103. 01:04:51.804                             : en:01:04:51.804
  104. 01:09:58.235                             : en:01:09:58.235
  105. 01:14:39.516                             : en:01:14:39.516
  106. 01:20:58.520                             : en:01:20:58.520
  107. 01:24:46.372                             : en:01:24:46.372
  108. 01:30:30.675                             : en:01:30:30.675
  109. 01:34:56.315                             : en:01:34:56.315