The text below is selected, press Ctrl+C to copy to your clipboard. (⌘+C on Mac) No line numbers will be copied.
Snatch (2000) 1080p BluRay x264...

20th January 2023 05:34:41 PM | Views: 12
  1. Format                                   : Matroska
  2. Format version                           : Version 4
  3. File size                                : 6.09 GiB
  4. Duration                                 : 1 h 42 min
  5. Overall bit rate mode                    : Variable
  6. Overall bit rate                         : 8 482 kb/s
  7. Movie name                               : Snatch (2000) 1080p BluRay x264 Dual Audio [Hindi DTH DD2.0 + English DTS-HD MA 7.1] ESub 6.08GB [MoviezAddiction]
  8. Encoded date                             : UTC 2023-01-15 00:46:10
  9. Writing application                      : mkvmerge v72.0.0 ('Minuano (Six-eight)') 64-bit
  10. Writing library                          : libebml v1.4.4 + libmatroska v1.7.1
  11.  
  12. Video
  13. ID                                       : 1
  14. Format                                   : AVC
  15. Format/Info                              : Advanced Video Codec
  16. Format profile                           : [email protected]
  17. Format settings                          : CABAC / 4 Ref Frames
  18. Format settings, CABAC                   : Yes
  19. Format settings, Reference frames        : 4 frames
  20. Codec ID                                 : V_MPEG4/ISO/AVC
  21. Duration                                 : 1 h 42 min
  22. Bit rate                                 : 4 000 kb/s
  23. Width                                    : 1 920 pixels
  24. Height                                   : 1 040 pixels
  25. Display aspect ratio                     : 1.85:1
  26. Frame rate mode                          : Variable
  27. Frame rate                               : 23.976 (24000/1001) FPS
  28. Color space                              : YUV
  29. Chroma subsampling                       : 4:2:0
  30. Bit depth                                : 8 bits
  31. Scan type                                : Progressive
  32. Bits/(Pixel*Frame)                       : 0.084
  33. Stream size                              : 2.87 GiB (47%)
  34. Default                                  : Yes
  35. Forced                                   : No
  36. Color range                              : Limited
  37. Color primaries                          : BT.709
  38. Transfer characteristics                 : BT.709
  39. Matrix coefficients                      : BT.709
  40.  
  41. Audio #1
  42. ID                                       : 2
  43. Format                                   : AC-3
  44. Format/Info                              : Audio Coding 3
  45. Commercial name                          : Dolby Digital
  46. Codec ID                                 : A_AC3
  47. Duration                                 : 1 h 42 min
  48. Bit rate mode                            : Constant
  49. Bit rate                                 : 224 kb/s
  50. Channel(s)                               : 2 channels
  51. Channel layout                           : L R
  52. Sampling rate                            : 48.0 kHz
  53. Frame rate                               : 31.250 FPS (1536 SPF)
  54. Compression mode                         : Lossy
  55. Delay relative to video                  : -41 ms
  56. Stream size                              : 165 MiB (3%)
  57. Title                                    : Hindi
  58. Language                                 : Hindi
  59. Service kind                             : Complete Main
  60. Default                                  : Yes
  61. Forced                                   : No
  62.  
  63. Audio #2
  64. ID                                       : 3
  65. Format                                   : DTS XLL
  66. Format/Info                              : Digital Theater Systems
  67. Commercial name                          : DTS-HD Master Audio
  68. Codec ID                                 : A_DTS
  69. Duration                                 : 1 h 42 min
  70. Bit rate mode                            : Variable
  71. Bit rate                                 : 4 223 kb/s
  72. Channel(s)                               : 8 channels
  73. Channel layout                           : C L R LFE Lb Rb Lss Rss
  74. Sampling rate                            : 48.0 kHz
  75. Frame rate                               : 93.750 FPS (512 SPF)
  76. Bit depth                                : 24 bits
  77. Compression mode                         : Lossless
  78. Delay relative to video                  : 4 s 200 ms
  79. Stream size                              : 3.03 GiB (50%)
  80. Title                                    : English
  81. Language                                 : English
  82. Default                                  : No
  83. Forced                                   : No
  84.  
  85. Text
  86. ID                                       : 4
  87. Format                                   : PGS
  88. Codec ID                                 : S_HDMV/PGS
  89. Codec ID/Info                            : Picture based subtitle format used on BDs/HD-DVDs
  90. Duration                                 : 1 h 38 min
  91. Bit rate                                 : 37.8 kb/s
  92. Count of elements                        : 2694
  93. Stream size                              : 26.7 MiB (0%)
  94. Title                                    : English [PGS]
  95. Language                                 : English
  96. Default                                  : Yes
  97. Forced                                   : No
  98.  
  99. Menu
  100. 00:00:00.041                             : en:Chapter 01
  101. 00:06:58.208                             : en:Chapter 02
  102. 00:11:53.670                             : en:Chapter 03
  103. 00:16:31.865                             : en:Chapter 04
  104. 00:22:48.032                             : en:Chapter 05
  105. 00:30:03.342                             : en:Chapter 06
  106. 00:36:28.060                             : en:Chapter 07
  107. 00:41:39.538                             : en:Chapter 08
  108. 00:48:16.517                             : en:Chapter 09
  109. 00:53:13.731                             : en:Chapter 10
  110. 00:59:06.417                             : en:Chapter 11
  111. 01:07:47.229                             : en:Chapter 12
  112. 01:13:24.649                             : en:Chapter 13
  113. 01:19:09.660                             : en:Chapter 14
  114. 01:28:12.703                             : en:Chapter 15
  115. 01:33:58.173                             : en:Chapter 16