The text below is selected, press Ctrl+C to copy to your clipboard. (⌘+C on Mac) No line numbers will be copied.
The Babysitter Killer Queen (2020)...

11th September 2020 05:43:04 AM | Views: 33
  1. Format                                   : Matroska
  2. Format version                           : Version 4
  3. File size                                : 2.35 GiB
  4. Duration                                 : 1 h 42 min
  5. Overall bit rate                         : 3 291 kb/s
  6. Movie name                               : The Babysitter Killer Queen (2020) 1080p WEB-DL x265 10bit HEVC Dual Audio [Hindi DDP5.1 + English DA5.1] ESub 2.35GB [www.MoviezAddiction.space]
  7. Encoded date                             : UTC 2020-09-11 03:13:15
  8. Writing application                      : mkvmerge v48.0.0 ('Fortress Around Your Heart') 64-bit
  9. Writing library                          : libebml v1.4.0 + libmatroska v1.6.0
  10.  
  11. Video
  12. ID                                       : 1
  13. Format                                   : HEVC
  14. Format/Info                              : High Efficiency Video Coding
  15. Format profile                           : Main [email protected]@Main
  16. Codec ID                                 : V_MPEGH/ISO/HEVC
  17. Duration                                 : 1 h 42 min
  18. Bit rate                                 : 1 881 kb/s
  19. Width                                    : 1 920 pixels
  20. Height                                   : 808 pixels
  21. Display aspect ratio                     : 2.40:1
  22. Frame rate mode                          : Constant
  23. Frame rate                               : 24.000 FPS
  24. Color space                              : YUV
  25. Chroma subsampling                       : 4:2:0
  26. Bit depth                                : 10 bits
  27. Bits/(Pixel*Frame)                       : 0.051
  28. Stream size                              : 1.35 GiB (57%)
  29. Title                                    : [www.MoviezAddiction.space]
  30. Default                                  : Yes
  31. Forced                                   : No
  32.  
  33. Audio #1
  34. ID                                       : 2
  35. Format                                   : E-AC-3 JOC
  36. Format/Info                              : Enhanced AC-3 with Joint Object Coding
  37. Commercial name                          : Dolby Digital Plus with Dolby Atmos
  38. Codec ID                                 : A_EAC3
  39. Duration                                 : 1 h 42 min
  40. Bit rate mode                            : Constant
  41. Bit rate                                 : 768 kb/s
  42. Channel(s)                               : 6 channels
  43. Channel layout                           : L R C LFE Ls Rs
  44. Sampling rate                            : 48.0 kHz
  45. Frame rate                               : 31.250 FPS (1536 SPF)
  46. Compression mode                         : Lossy
  47. Stream size                              : 563 MiB (23%)
  48. Title                                    : [www.MoviezAddiction.space] - English
  49. Language                                 : English
  50. Service kind                             : Complete Main
  51. Default                                  : No
  52. Forced                                   : No
  53. Complexity index                         : 16
  54. Number of dynamic objects                : 15
  55. Bed channel count                        : 1 channel
  56. Bed channel configuration                : LFE
  57.  
  58. Audio #2
  59. ID                                       : 3
  60. Format                                   : E-AC-3
  61. Format/Info                              : Enhanced AC-3
  62. Commercial name                          : Dolby Digital Plus
  63. Codec ID                                 : A_EAC3
  64. Duration                                 : 1 h 42 min
  65. Bit rate mode                            : Constant
  66. Bit rate                                 : 640 kb/s
  67. Channel(s)                               : 6 channels
  68. Channel layout                           : L R C LFE Ls Rs
  69. Sampling rate                            : 48.0 kHz
  70. Frame rate                               : 31.250 FPS (1536 SPF)
  71. Compression mode                         : Lossy
  72. Stream size                              : 469 MiB (19%)
  73. Title                                    : [www.MoviezAddiction.space] - Hindi
  74. Language                                 : Hindi
  75. Service kind                             : Complete Main
  76. Default                                  : Yes
  77. Forced                                   : Yes
  78.  
  79. Text
  80. ID                                       : 4
  81. Format                                   : UTF-8
  82. Codec ID                                 : S_TEXT/UTF8
  83. Codec ID/Info                            : UTF-8 Plain Text
  84. Duration                                 : 1 h 40 min
  85. Bit rate                                 : 83 b/s
  86. Count of elements                        : 1839
  87. Stream size                              : 60.9 KiB (0%)
  88. Title                                    : [www.MoviezAddiction.space] - English [SRT]
  89. Language                                 : English
  90. Default                                  : Yes
  91. Forced                                   : Yes