The text below is selected, press Ctrl+C to copy to your clipboard. (⌘+C on Mac) No line numbers will be copied.
MediaInfo

12th March 2019 06:56:53 AM | Views: 298
  1. Format                                   : Matroska
  2. Format version                           : Version 4
  3. File size                                : 1.08 GiB
  4. Duration                                 : 2 h 12 min
  5. Overall bit rate                         : 1 164 kb/s
  6. Movie name                               : Vice.2019.720p.WEB-DL.x264-MkvCage.ws
  7. Encoded date                             : UTC 2019-03-12 06:55:01
  8. Writing application                      : mkvmerge v30.1.0 ('Forever And More') 64-bit
  9. Writing library                          : libebml v1.3.6 + libmatroska v1.4.9
  10.  
  11. Video
  12. ID                                       : 2
  13. Format                                   : AVC
  14. Format/Info                              : Advanced Video Codec
  15. Format profile                           : [email protected]
  16. Format settings                          : CABAC / 8 Ref Frames
  17. Format settings, CABAC                   : Yes
  18. Format settings, RefFrames               : 8 frames
  19. Codec ID                                 : V_MPEG4/ISO/AVC
  20. Duration                                 : 2 h 12 min
  21. Bit rate                                 : 1 098 kb/s
  22. Width                                    : 1 280 pixels
  23. Height                                   : 534 pixels
  24. Display aspect ratio                     : 2.40:1
  25. Frame rate mode                          : Constant
  26. Frame rate                               : 23.976 (24000/1001) FPS
  27. Color space                              : YUV
  28. Chroma subsampling                       : 4:2:0
  29. Bit depth                                : 8 bits
  30. Scan type                                : Progressive
  31. Bits/(Pixel*Frame)                       : 0.067
  32. Stream size                              : 1.02 GiB (94%)
  33. Writing library                          : x264 core 157 r2935 545de2f
  34. Encoding settings                        : cabac=1 / ref=8 / deblock=1:-1:-1 / analyse=0x3:0x133 / me=umh / subme=9 / psy=1 / psy_rd=1.00:0.10 / mixed_ref=1 / me_range=24 / chroma_me=1 / trellis=2 / 8x8dct=1 / cqm=0 / deadzone=21,11 / fast_pskip=1 / chroma_qp_offset=-3 / threads=17 / lookahead_threads=1 / sliced_threads=0 / nr=0 / decimate=1 / interlaced=0 / bluray_compat=0 / constrained_intra=0 / bframes=3 / b_pyramid=2 / b_adapt=2 / b_bias=0 / direct=3 / weightb=1 / open_gop=0 / weightp=2 / keyint=250 / keyint_min=23 / scenecut=40 / intra_refresh=0 / rc_lookahead=60 / rc=2pass / mbtree=1 / bitrate=1098 / ratetol=1.0 / qcomp=0.60 / qpmin=0 / qpmax=69 / qpstep=4 / cplxblur=20.0 / qblur=0.5 / ip_ratio=1.40 / aq=1:1.00
  35. Default                                  : Yes
  36. Forced                                   : No
  37. Color range                              : Limited
  38. Color primaries                          : BT.709
  39. Transfer characteristics                 : BT.709
  40.  
  41. Audio
  42. ID                                       : 3
  43. Format                                   : AAC LC SBR
  44. Format/Info                              : Advanced Audio Codec Low Complexity with Spectral Band Replication
  45. Commercial name                          : HE-AAC
  46. Format settings                          : Explicit
  47. Codec ID                                 : A_AAC-2
  48. Duration                                 : 2 h 12 min
  49. Bit rate                                 : 64.0 kb/s
  50. Channel(s)                               : 2 channels
  51. Channel layout                           : L R
  52. Sampling rate                            : 48.0 kHz
  53. Frame rate                               : 23.438 FPS (2048 SPF)
  54. Compression mode                         : Lossy
  55. Delay relative to video                  : 1 ms
  56. Stream size                              : 60.6 MiB (5%)
  57. Language                                 : English
  58. Default                                  : Yes
  59. Forced                                   : No
  60.  
  61. Text
  62. ID                                       : 1
  63. Format                                   : UTF-8
  64. Codec ID                                 : S_TEXT/UTF8
  65. Codec ID/Info                            : UTF-8 Plain Text
  66. Duration                                 : 2 h 5 min
  67. Bit rate                                 : 82 b/s
  68. Count of elements                        : 2328
  69. Stream size                              : 75.5 KiB (0%)
  70. Language                                 : English
  71. Default                                  : Yes
  72. Forced                                   : No
  73.  
  74. Menu
  75. 00:00:00.000                             : en:Chapter 01
  76. 00:03:05.602                             : en:Chapter 02
  77. 00:07:50.803                             : en:Chapter 03
  78. 00:13:33.979                             : en:Chapter 04
  79. 00:19:29.918                             : en:Chapter 05
  80. 00:26:39.347                             : en:Chapter 06
  81. 00:33:10.445                             : en:Chapter 07
  82. 00:37:50.850                             : en:Chapter 08
  83. 00:42:01.725                             : en:Chapter 09
  84. 00:51:35.465                             : en:Chapter 10
  85. 00:56:00.896                             : en:Chapter 11
  86. 01:00:24.200                             : en:Chapter 12
  87. 01:06:50.544                             : en:Chapter 13
  88. 01:10:11.243                             : en:Chapter 14
  89. 01:13:14.426                             : en:Chapter 15
  90. 01:17:04.071                             : en:Chapter 16
  91. 01:23:49.141                             : en:Chapter 17
  92. 01:26:43.522                             : en:Chapter 18
  93. 01:34:42.291                             : en:Chapter 19
  94. 01:39:09.432                             : en:Chapter 20
  95. 01:44:44.974                             : en:Chapter 21
  96. 01:49:41.145                             : en:Chapter 22
  97. 01:59:18.847                             : en:Chapter 23
  98. 02:02:20.194                             : en:Chapter 24