The text below is selected, press Ctrl+C to copy to your clipboard. (⌘+C on Mac) No line numbers will be copied.
Sing 2 (2021) REMASTERED DS4K...

10th January 2022 08:00:21 AM | Views: 11
  1. Format                                   : Matroska
  2. Format version                           : Version 4
  3. File size                                : 3.66 GiB
  4. Duration                                 : 1 h 49 min
  5. Overall bit rate                         : 4 769 kb/s
  6. Movie name                               : Sing 2 (2021) REMASTERED DS4K 1080p WEB-DL x264 English DDP5.1 Atmos MSubs 3.65GB [www.MoviezAddiction.art]
  7. Encoded date                             : UTC 2022-01-09 14:39:36
  8. Writing application                      : mkvmerge v47.0.0 ('Black Flag') 64-bit
  9. Writing library                          : libebml v1.3.10 + libmatroska v1.5.2
  10.  
  11. Video
  12. ID                                       : 1
  13. Format                                   : AVC
  14. Format/Info                              : Advanced Video Codec
  15. Format profile                           : [email protected]
  16. Format settings                          : CABAC / 4 Ref Frames
  17. Format settings, CABAC                   : Yes
  18. Format settings, Reference frames        : 4 frames
  19. Codec ID                                 : V_MPEG4/ISO/AVC
  20. Duration                                 : 1 h 49 min
  21. Bit rate                                 : 4 000 kb/s
  22. Width                                    : 1 920 pixels
  23. Height                                   : 1 036 pixels
  24. Display aspect ratio                     : 1.85:1
  25. Frame rate mode                          : Variable
  26. Frame rate                               : 23.976 (24000/1001) FPS
  27. Color space                              : YUV
  28. Chroma subsampling                       : 4:2:0
  29. Bit depth                                : 8 bits
  30. Scan type                                : Progressive
  31. Bits/(Pixel*Frame)                       : 0.084
  32. Stream size                              : 3.07 GiB (84%)
  33. Title                                    : [www.MoviezAddiction.art]
  34. Default                                  : Yes
  35. Forced                                   : No
  36. Color range                              : Limited
  37. Color primaries                          : BT.709
  38. Transfer characteristics                 : BT.709
  39. Matrix coefficients                      : BT.709
  40.  
  41. Audio
  42. ID                                       : 2
  43. Format                                   : E-AC-3 JOC
  44. Format/Info                              : Enhanced AC-3 with Joint Object Coding
  45. Commercial name                          : Dolby Digital Plus with Dolby Atmos
  46. Codec ID                                 : A_EAC3
  47. Duration                                 : 1 h 49 min
  48. Bit rate mode                            : Constant
  49. Bit rate                                 : 768 kb/s
  50. Channel(s)                               : 6 channels
  51. Channel layout                           : L R C LFE Ls Rs
  52. Sampling rate                            : 48.0 kHz
  53. Frame rate                               : 31.250 FPS (1536 SPF)
  54. Compression mode                         : Lossy
  55. Stream size                              : 603 MiB (16%)
  56. Title                                    : [www.MoviezAddiction.art] - English
  57. Language                                 : English
  58. Service kind                             : Complete Main
  59. Default                                  : Yes
  60. Forced                                   : No
  61. Complexity index                         : 16
  62. Number of dynamic objects                : 15
  63. Bed channel count                        : 1 channel
  64. Bed channel configuration                : LFE
  65.  
  66. Text #1
  67. ID                                       : 3
  68. Format                                   : UTF-8
  69. Codec ID                                 : S_TEXT/UTF8
  70. Codec ID/Info                            : UTF-8 Plain Text
  71. Duration                                 : 1 h 44 min
  72. Bit rate                                 : 81 b/s
  73. Count of elements                        : 2072
  74. Stream size                              : 62.1 KiB (0%)
  75. Title                                    : [www.MoviezAddiction.art] - English [SRT]
  76. Language                                 : English
  77. Default                                  : Yes
  78. Forced                                   : No
  79.  
  80. Text #2
  81. ID                                       : 4
  82. Format                                   : UTF-8
  83. Codec ID                                 : S_TEXT/UTF8
  84. Codec ID/Info                            : UTF-8 Plain Text
  85. Duration                                 : 1 h 49 min
  86. Bit rate                                 : 90 b/s
  87. Count of elements                        : 2403
  88. Stream size                              : 72.4 KiB (0%)
  89. Title                                    : [www.MoviezAddiction.art] - English [SDH] [SRT]
  90. Language                                 : English
  91. Default                                  : No
  92. Forced                                   : No