The text below is selected, press Ctrl+C to copy to your clipboard. (⌘+C on Mac) No line numbers will be copied.
Resident Evil - Welcome to...

20th January 2022 08:36:56 AM | Views: 83
  1. Format                                   : Matroska
  2. Format version                           : Version 4
  3. File size                                : 1.92 GiB
  4. Duration                                 : 1 h 47 min
  5. Overall bit rate                         : 2 550 kb/s
  6. Movie name                               : Resident Evil - Welcome to Raccoon City (2021) 1080p WEB-DL x265 10bit HEVC Dual Audio [Hindi DDP5.1 + English DDP5.1] MSubs 1.91GB [www.MoviezAddiction.art]
  7. Encoded date                             : UTC 2022-01-20 04:55:37
  8. Writing application                      : mkvmerge v47.0.0 ('Black Flag') 64-bit
  9. Writing library                          : libebml v1.3.10 + libmatroska v1.5.2
  10.  
  11. Video
  12. ID                                       : 1
  13. Format                                   : HEVC
  14. Format/Info                              : High Efficiency Video Coding
  15. Format profile                           : Main [email protected]@Main
  16. Codec ID                                 : V_MPEGH/ISO/HEVC
  17. Duration                                 : 1 h 47 min
  18. Bit rate                                 : 1 462 kb/s
  19. Width                                    : 1 920 pixels
  20. Height                                   : 808 pixels
  21. Display aspect ratio                     : 2.40:1
  22. Frame rate mode                          : Constant
  23. Frame rate                               : 23.976 (24000/1001) FPS
  24. Color space                              : YUV
  25. Chroma subsampling                       : 4:2:0
  26. Bit depth                                : 10 bits
  27. Bits/(Pixel*Frame)                       : 0.039
  28. Stream size                              : 1.10 GiB (57%)
  29. Title                                    : [www.MoviezAddiction.art]
  30. Default                                  : Yes
  31. Forced                                   : No
  32. Color range                              : Limited
  33. Color primaries                          : BT.709
  34. Transfer characteristics                 : BT.709
  35. Matrix coefficients                      : BT.709
  36.  
  37. Audio #1
  38. ID                                       : 2
  39. Format                                   : E-AC-3
  40. Format/Info                              : Enhanced AC-3
  41. Commercial name                          : Dolby Digital Plus
  42. Codec ID                                 : A_EAC3
  43. Duration                                 : 1 h 47 min
  44. Bit rate mode                            : Constant
  45. Bit rate                                 : 448 kb/s
  46. Channel(s)                               : 6 channels
  47. Channel layout                           : L R C LFE Ls Rs
  48. Sampling rate                            : 48.0 kHz
  49. Frame rate                               : 31.250 FPS (1536 SPF)
  50. Compression mode                         : Lossy
  51. Delay relative to video                  : 14 s 651 ms
  52. Stream size                              : 344 MiB (18%)
  53. Title                                    : [www.MoviezAddiction.art] - Hindi
  54. Language                                 : Hindi
  55. Service kind                             : Complete Main
  56. Default                                  : Yes
  57. Forced                                   : No
  58.  
  59. Audio #2
  60. ID                                       : 3
  61. Format                                   : E-AC-3
  62. Format/Info                              : Enhanced AC-3
  63. Commercial name                          : Dolby Digital Plus
  64. Codec ID                                 : A_EAC3
  65. Duration                                 : 1 h 47 min
  66. Bit rate mode                            : Constant
  67. Bit rate                                 : 640 kb/s
  68. Channel(s)                               : 6 channels
  69. Channel layout                           : L R C LFE Ls Rs
  70. Sampling rate                            : 48.0 kHz
  71. Frame rate                               : 31.250 FPS (1536 SPF)
  72. Compression mode                         : Lossy
  73. Stream size                              : 493 MiB (25%)
  74. Title                                    : [www.MoviezAddiction.art] - English
  75. Language                                 : English
  76. Service kind                             : Complete Main
  77. Default                                  : No
  78. Forced                                   : No
  79.  
  80. Text #1
  81. ID                                       : 4
  82. Format                                   : UTF-8
  83. Codec ID                                 : S_TEXT/UTF8
  84. Codec ID/Info                            : UTF-8 Plain Text
  85. Duration                                 : 1 h 46 min
  86. Bit rate                                 : 40 b/s
  87. Count of elements                        : 1437
  88. Stream size                              : 31.7 KiB (0%)
  89. Title                                    : [www.MoviezAddiction.art] - English [SRT]
  90. Language                                 : English
  91. Default                                  : Yes
  92. Forced                                   : No
  93.  
  94. Text #2
  95. ID                                       : 5
  96. Format                                   : UTF-8
  97. Codec ID                                 : S_TEXT/UTF8
  98. Codec ID/Info                            : UTF-8 Plain Text
  99. Duration                                 : 1 h 46 min
  100. Bit rate                                 : 44 b/s
  101. Count of elements                        : 1473
  102. Stream size                              : 34.5 KiB (0%)
  103. Title                                    : [www.MoviezAddiction.art] - English [SDH] [SRT]
  104. Language                                 : English
  105. Default                                  : No
  106. Forced                                   : No
  107.  
  108. Menu
  109. 00:00:00.000                             : en:Studio Logo
  110. 00:00:56.000                             : en:Opening Credits
  111. 00:01:08.000                             : en:Scene 3
  112. 00:05:12.000                             : en:Scene 4
  113. 00:06:29.000                             : en:Scene 5
  114. 00:06:32.000                             : en:Scene 6
  115. 00:15:09.000                             : en:Scene 7
  116. 00:20:09.000                             : en:Scene 8
  117. 00:26:16.000                             : en:Scene 9
  118. 00:38:00.000                             : en:Scene 10
  119. 00:41:24.000                             : en:Scene 11
  120. 00:51:51.000                             : en:Scene 12
  121. 00:59:22.000                             : en:Scene 13
  122. 01:07:39.000                             : en:Scene 14
  123. 01:13:20.000                             : en:Scene 15
  124. 01:16:22.000                             : en:Scene 16
  125. 01:16:48.000                             : en:Scene 17
  126. 01:19:17.000                             : en:Scene 18
  127. 01:19:34.000                             : en:Scene 19
  128. 01:20:46.000                             : en:Scene 20
  129. 01:24:11.000                             : en:Scene 21
  130. 01:28:44.000                             : en:Scene 22
  131. 01:34:00.000                             : en:Scene 23
  132. 01:35:17.000                             : en:Scene 24
  133. 01:39:29.000                             : en:Scene 25
  134. 01:41:06.000                             : en:End Credits