The text below is selected, press Ctrl+C to copy to your clipboard. (⌘+C on Mac) No line numbers will be copied.
Mamma Mia Here We Go...

10th September 2020 04:01:54 PM | Views: 23
  1. Format                                   : Matroska
  2. Format version                           : Version 4
  3. File size                                : 3.43 GiB
  4. Duration                                 : 1 h 53 min
  5. Overall bit rate                         : 4 324 kb/s
  6. Movie name                               : Mamma Mia Here We Go Again (2018) 1080p Bluray x265 10bit HEVC Dual Audio [ Hindi DDP5.1 + English DD7.1 ] ESub [www.MoviezAddiction.space]
  7. Encoded date                             : UTC 2020-09-10 08:21:23
  8. Writing application                      : mkvmerge v48.0.0 ('Fortress Around Your Heart') 64-bit
  9. Writing library                          : libebml v1.4.0 + libmatroska v1.6.0
  10.  
  11. Video
  12. ID                                       : 3
  13. Format                                   : HEVC
  14. Format/Info                              : High Efficiency Video Coding
  15. Format profile                           : Main [email protected]@Main
  16. Codec ID                                 : V_MPEGH/ISO/HEVC
  17. Duration                                 : 1 h 53 min
  18. Bit rate                                 : 3 376 kb/s
  19. Width                                    : 1 920 pixels
  20. Height                                   : 800 pixels
  21. Display aspect ratio                     : 2.40:1
  22. Frame rate mode                          : Constant
  23. Frame rate                               : 23.976 (24000/1001) FPS
  24. Color space                              : YUV
  25. Chroma subsampling                       : 4:2:0
  26. Bit depth                                : 10 bits
  27. Bits/(Pixel*Frame)                       : 0.092
  28. Stream size                              : 2.68 GiB (78%)
  29. Title                                    : [www.MoviezAddiction.space]
  30. Default                                  : Yes
  31. Forced                                   : No
  32.  
  33. Audio #1
  34. ID                                       : 2
  35. Format                                   : E-AC-3
  36. Format/Info                              : Enhanced AC-3
  37. Commercial name                          : Dolby Digital Plus
  38. Codec ID                                 : A_EAC3
  39. Duration                                 : 1 h 53 min
  40. Bit rate mode                            : Constant
  41. Bit rate                                 : 640 kb/s
  42. Channel(s)                               : 6 channels
  43. Channel layout                           : L R C LFE Ls Rs
  44. Sampling rate                            : 48.0 kHz
  45. Frame rate                               : 31.250 FPS (1536 SPF)
  46. Compression mode                         : Lossy
  47. Stream size                              : 521 MiB (15%)
  48. Title                                    : [www.MoviezAddiction.space]
  49. Language                                 : Hindi
  50. Service kind                             : Complete Main
  51. Default                                  : Yes
  52. Forced                                   : Yes
  53.  
  54. Audio #2
  55. ID                                       : 4
  56. Format                                   : AAC LC SBR
  57. Format/Info                              : Advanced Audio Codec Low Complexity with Spectral Band Replication
  58. Commercial name                          : HE-AAC
  59. Format settings                          : Explicit
  60. Codec ID                                 : A_AAC-2
  61. Duration                                 : 1 h 53 min
  62. Bit rate                                 : 288 kb/s
  63. Channel(s)                               : 8 channels
  64. Channel layout                           : C L R Ls Rs Lw Rw LFE
  65. Sampling rate                            : 48.0 kHz
  66. Frame rate                               : 23.438 FPS (2048 SPF)
  67. Compression mode                         : Lossy
  68. Delay relative to video                  : 31 ms
  69. Stream size                              : 237 MiB (7%)
  70. Title                                    : [www.MoviezAddiction.space]
  71. Language                                 : English
  72. Default                                  : No
  73. Forced                                   : No
  74.  
  75. Text #1
  76. ID                                       : 1
  77. Format                                   : PGS
  78. Muxing mode                              : zlib
  79. Codec ID                                 : S_HDMV/PGS
  80. Codec ID/Info                            : Picture based subtitle format used on BDs/HD-DVDs
  81. Duration                                 : 1 h 52 min
  82. Bit rate                                 : 28.9 kb/s
  83. Count of elements                        : 3008
  84. Stream size                              : 23.2 MiB (1%)
  85. Title                                    : [www.MoviezAddiction.space]
  86. Language                                 : Hindi
  87. Default                                  : Yes
  88. Forced                                   : Yes
  89.  
  90. Text #2
  91. ID                                       : 5
  92. Format                                   : UTF-8
  93. Codec ID                                 : S_TEXT/UTF8
  94. Codec ID/Info                            : UTF-8 Plain Text
  95. Duration                                 : 1 h 52 min
  96. Bit rate                                 : 75 b/s
  97. Count of elements                        : 2175
  98. Stream size                              : 62.4 KiB (0%)
  99. Title                                    : [www.MoviezAddiction.space]
  100. Language                                 : English
  101. Default                                  : No
  102. Forced                                   : No