The text below is selected, press Ctrl+C to copy to your clipboard. (⌘+C on Mac) No line numbers will be copied.
The Book of Boba Fett...

29th December 2021 12:52:17 PM | Views: 25
  1. Format                                   : Matroska
  2. Format version                           : Version 4
  3. File size                                : 6.05 GiB
  4. Duration                                 : 37 min 43 s
  5. Overall bit rate                         : 23.0 Mb/s
  6. Movie name                               : The Book of Boba Fett (2021) S01E01 [Stranger in a Strange Land] 2160p UHD WEB-DL x265 10bit HDR HEVC Dual Audio [Hindi DDP5.1 + English DDP5.1 Atmos] ESub 6.05GB [www.MoviezAddiction.art]
  7. Encoded date                             : UTC 2021-12-29 11:46:44
  8. Writing application                      : mkvmerge v47.0.0 ('Black Flag') 64-bit
  9. Writing library                          : libebml v1.3.10 + libmatroska v1.5.2
  10.  
  11. Video
  12. ID                                       : 1
  13. Format                                   : HEVC
  14. Format/Info                              : High Efficiency Video Coding
  15. Format profile                           : Main [email protected]@Main
  16. Codec ID                                 : V_MPEGH/ISO/HEVC
  17. Duration                                 : 37 min 43 s
  18. Bit rate                                 : 22.0 Mb/s
  19. Width                                    : 3 840 pixels
  20. Height                                   : 2 160 pixels
  21. Display aspect ratio                     : 16:9
  22. Frame rate mode                          : Constant
  23. Frame rate                               : 24.000 FPS
  24. Color space                              : YUV
  25. Chroma subsampling                       : 4:2:0
  26. Bit depth                                : 10 bits
  27. Bits/(Pixel*Frame)                       : 0.111
  28. Stream size                              : 5.80 GiB (96%)
  29. Title                                    : [www.MoviezAddiction.art]
  30. Default                                  : Yes
  31. Forced                                   : No
  32. Color range                              : Limited
  33. Color primaries                          : BT.2020
  34. Transfer characteristics                 : PQ
  35. Matrix coefficients                      : BT.2020 non-constant
  36.  
  37. Audio #1
  38. ID                                       : 2
  39. Format                                   : E-AC-3
  40. Format/Info                              : Enhanced AC-3
  41. Commercial name                          : Dolby Digital Plus
  42. Codec ID                                 : A_EAC3
  43. Duration                                 : 37 min 43 s
  44. Bit rate mode                            : Constant
  45. Bit rate                                 : 192 kb/s
  46. Channel(s)                               : 6 channels
  47. Channel layout                           : L R C LFE Ls Rs
  48. Sampling rate                            : 48.0 kHz
  49. Frame rate                               : 31.250 FPS (1536 SPF)
  50. Compression mode                         : Lossy
  51. Stream size                              : 51.8 MiB (1%)
  52. Title                                    : [www.MoviezAddiction.art] - Hindi
  53. Language                                 : Hindi
  54. Service kind                             : Complete Main
  55. Default                                  : Yes
  56. Forced                                   : No
  57.  
  58. Audio #2
  59. ID                                       : 3
  60. Format                                   : E-AC-3 JOC
  61. Format/Info                              : Enhanced AC-3 with Joint Object Coding
  62. Commercial name                          : Dolby Digital Plus with Dolby Atmos
  63. Codec ID                                 : A_EAC3
  64. Duration                                 : 37 min 40 s
  65. Bit rate mode                            : Constant
  66. Bit rate                                 : 768 kb/s
  67. Channel(s)                               : 6 channels
  68. Channel layout                           : L R C LFE Ls Rs
  69. Sampling rate                            : 48.0 kHz
  70. Frame rate                               : 31.250 FPS (1536 SPF)
  71. Compression mode                         : Lossy
  72. Stream size                              : 207 MiB (3%)
  73. Title                                    : [www.MoviezAddiction.art] - English
  74. Language                                 : English
  75. Service kind                             : Complete Main
  76. Default                                  : No
  77. Forced                                   : No
  78. Complexity index                         : 16
  79. Number of dynamic objects                : 15
  80. Bed channel count                        : 1 channel
  81. Bed channel configuration                : LFE
  82.  
  83. Text
  84. ID                                       : 4
  85. Format                                   : UTF-8
  86. Codec ID                                 : S_TEXT/UTF8
  87. Codec ID/Info                            : UTF-8 Plain Text
  88. Duration                                 : 33 min 30 s
  89. Bit rate                                 : 29 b/s
  90. Count of elements                        : 261
  91. Stream size                              : 7.20 KiB (0%)
  92. Title                                    : [www.MoviezAddiction.art] - English [SRT]
  93. Language                                 : English
  94. Default                                  : Yes
  95. Forced                                   : No