The text below is selected, press Ctrl+C to copy to your clipboard. (⌘+C on Mac) No line numbers will be copied.
Dont Look Deeper (2022) 720p...

19th January 2023 02:27:01 PM | Views: 6
  1. Format                                   : Matroska
  2. Format version                           : Version 4
  3. File size                                : 1.13 GiB
  4. Duration                                 : 2 h 4 min
  5. Overall bit rate                         : 1 291 kb/s
  6. Movie name                               : Don't Look Deeper (2022) 720p AMZN WEB-DL x264 English DD5.1 ESub 1.12GB [MoviezAddiction]
  7. Encoded date                             : UTC 2023-01-18 07:49:59
  8. Writing application                      : mkvmerge v72.0.0 ('Minuano (Six-eight)') 64-bit
  9. Writing library                          : libebml v1.4.4 + libmatroska v1.7.1
  10.  
  11. Video
  12. ID                                       : 1
  13. Format                                   : AVC
  14. Format/Info                              : Advanced Video Codec
  15. Format profile                           : [email protected]
  16. Format settings                          : CABAC / 4 Ref Frames
  17. Format settings, CABAC                   : Yes
  18. Format settings, Reference frames        : 4 frames
  19. Codec ID                                 : V_MPEG4/ISO/AVC
  20. Duration                                 : 2 h 4 min
  21. Bit rate                                 : 1 099 kb/s
  22. Width                                    : 1 280 pixels
  23. Height                                   : 720 pixels
  24. Display aspect ratio                     : 16:9
  25. Frame rate mode                          : Variable
  26. Frame rate                               : 24.000 FPS
  27. Color space                              : YUV
  28. Chroma subsampling                       : 4:2:0
  29. Bit depth                                : 8 bits
  30. Scan type                                : Progressive
  31. Bits/(Pixel*Frame)                       : 0.050
  32. Stream size                              : 981 MiB (85%)
  33. Default                                  : Yes
  34. Forced                                   : No
  35. Color range                              : Limited
  36. Color primaries                          : BT.709
  37. Transfer characteristics                 : BT.709
  38. Matrix coefficients                      : BT.709
  39.  
  40. Audio
  41. ID                                       : 2
  42. Format                                   : AAC LC SBR
  43. Format/Info                              : Advanced Audio Codec Low Complexity with Spectral Band Replication
  44. Commercial name                          : HE-AAC
  45. Format settings                          : Explicit
  46. Codec ID                                 : A_AAC-2
  47. Duration                                 : 2 h 4 min
  48. Bit rate                                 : 192 kb/s
  49. Channel(s)                               : 6 channels
  50. Channel layout                           : C L R Ls Rs LFE
  51. Sampling rate                            : 48.0 kHz
  52. Frame rate                               : 23.438 FPS (2048 SPF)
  53. Compression mode                         : Lossy
  54. Stream size                              : 170 MiB (15%)
  55. Title                                    : English
  56. Language                                 : English
  57. Default                                  : Yes
  58. Forced                                   : No
  59.  
  60. Text
  61. ID                                       : 3
  62. Format                                   : UTF-8
  63. Codec ID                                 : S_TEXT/UTF8
  64. Codec ID/Info                            : UTF-8 Plain Text
  65. Duration                                 : 1 h 56 min
  66. Bit rate                                 : 52 b/s
  67. Count of elements                        : 1687
  68. Stream size                              : 44.7 KiB (0%)
  69. Title                                    : English [SRT]
  70. Language                                 : English
  71. Default                                  : Yes
  72. Forced                                   : No