The text below is selected, press Ctrl+C to copy to your clipboard. (⌘+C on Mac) No line numbers will be copied.
Doraemon Nobitas Chronicle of the...

23rd January 2023 04:03:21 AM | Views: 4
  1. Format                                   : Matroska
  2. Format version                           : Version 4
  3. File size                                : 25.8 GiB
  4. Duration                                 : 1 h 50 min
  5. Overall bit rate mode                    : Variable
  6. Overall bit rate                         : 33.3 Mb/s
  7. Movie name                               : Doraemon Nobita's Chronicle of the Moon Exploration (2019) 1080p BluRay REMUX x264 Hindi TV-DL DDP2.0 ESub 25.7GB [MoviezAddiction]
  8. Encoded date                             : UTC 2023-01-23 01:43:56
  9. Writing application                      : mkvmerge v72.0.0 ('Minuano (Six-eight)') 64-bit
  10. Writing library                          : libebml v1.4.4 + libmatroska v1.7.1
  11.  
  12. Video
  13. ID                                       : 1
  14. Format                                   : AVC
  15. Format/Info                              : Advanced Video Codec
  16. Format profile                           : [email protected]
  17. Format settings                          : CABAC / 4 Ref Frames
  18. Format settings, CABAC                   : Yes
  19. Format settings, Reference frames        : 4 frames
  20. Codec ID                                 : V_MPEG4/ISO/AVC
  21. Duration                                 : 1 h 50 min
  22. Bit rate mode                            : Variable
  23. Bit rate                                 : 33.1 Mb/s
  24. Maximum bit rate                         : 35.0 Mb/s
  25. Width                                    : 1 920 pixels
  26. Height                                   : 1 080 pixels
  27. Display aspect ratio                     : 16:9
  28. Frame rate mode                          : Constant
  29. Frame rate                               : 23.976 (24000/1001) FPS
  30. Color space                              : YUV
  31. Chroma subsampling                       : 4:2:0
  32. Bit depth                                : 8 bits
  33. Scan type                                : Progressive
  34. Bits/(Pixel*Frame)                       : 0.667
  35. Stream size                              : 25.6 GiB (99%)
  36. Default                                  : Yes
  37. Forced                                   : No
  38.  
  39. Audio
  40. ID                                       : 2
  41. Format                                   : E-AC-3
  42. Format/Info                              : Enhanced AC-3
  43. Commercial name                          : Dolby Digital Plus
  44. Codec ID                                 : A_EAC3
  45. Duration                                 : 1 h 50 min
  46. Bit rate mode                            : Constant
  47. Bit rate                                 : 192 kb/s
  48. Channel(s)                               : 2 channels
  49. Channel layout                           : L R
  50. Sampling rate                            : 48.0 kHz
  51. Frame rate                               : 31.250 FPS (1536 SPF)
  52. Compression mode                         : Lossy
  53. Stream size                              : 152 MiB (0%)
  54. Title                                    : Hindi
  55. Language                                 : Hindi
  56. Service kind                             : Complete Main
  57. Default                                  : Yes
  58. Forced                                   : No
  59.  
  60. Text
  61. ID                                       : 3
  62. Format                                   : ASS
  63. Codec ID                                 : S_TEXT/ASS
  64. Codec ID/Info                            : Advanced Sub Station Alpha
  65. Duration                                 : 1 h 50 min
  66. Bit rate                                 : 91 b/s
  67. Frame rate                               : 0.249 FPS
  68. Count of elements                        : 1654
  69. Compression mode                         : Lossless
  70. Stream size                              : 74.0 KiB (0%)
  71. Title                                    : English [ASS]
  72. Language                                 : English
  73. Default                                  : Yes
  74. Forced                                   : No
  75.  
  76. Menu
  77. 00:00:02.009                             : en:第 01 章
  78. 00:03:41.270                             : en:第 02 章
  79. 00:05:10.901                             : en:第 03 章
  80. 00:22:29.856                             : en:第 04 章
  81. 00:40:45.659                             : en:第 05 章
  82. 01:03:49.333                             : en:第 06 章
  83. 01:29:06.640                             : en:第 07 章
  84. 01:46:37.482                             : en:第 08 章
  85. 01:50:00.601                             : en:第 09 章