The text below is selected, press Ctrl+C to copy to your clipboard. (⌘+C on Mac) No line numbers will be copied.
Last Action Hero (1993) 1080p...

12th November 2022 04:55:00 PM | Views: 19
  1. Format                                   : Matroska
  2. Format version                           : Version 4
  3. File size                                : 7.86 GiB
  4. Duration                                 : 2 h 10 min
  5. Overall bit rate mode                    : Variable
  6. Overall bit rate                         : 8 592 kb/s
  7. Movie name                               : Last Action Hero (1993) 1080p BluRay x264 Dual Audio [Hindi TV-DL DDP2.0 + English DTS-HD MA 7.1] ESub 7.85GB [MoviezAddiction.life]
  8. Encoded date                             : UTC 2022-11-12 12:10:09
  9. Writing application                      : mkvmerge v71.1.0 ('Fortitude') 64-bit
  10. Writing library                          : libebml v1.4.4 + libmatroska v1.7.1
  11.  
  12. Video
  13. ID                                       : 1
  14. Format                                   : AVC
  15. Format/Info                              : Advanced Video Codec
  16. Format profile                           : [email protected]
  17. Format settings                          : CABAC / 5 Ref Frames
  18. Format settings, CABAC                   : Yes
  19. Format settings, Reference frames        : 5 frames
  20. Codec ID                                 : V_MPEG4/ISO/AVC
  21. Duration                                 : 2 h 10 min
  22. Bit rate                                 : 4 000 kb/s
  23. Width                                    : 1 920 pixels
  24. Height                                   : 800 pixels
  25. Display aspect ratio                     : 2.40:1
  26. Frame rate mode                          : Variable
  27. Frame rate                               : 23.976 (24000/1001) FPS
  28. Color space                              : YUV
  29. Chroma subsampling                       : 4:2:0
  30. Bit depth                                : 8 bits
  31. Scan type                                : Progressive
  32. Bits/(Pixel*Frame)                       : 0.109
  33. Stream size                              : 3.66 GiB (47%)
  34. Default                                  : Yes
  35. Forced                                   : No
  36.  
  37. Audio #1
  38. ID                                       : 2
  39. Format                                   : E-AC-3
  40. Format/Info                              : Enhanced AC-3
  41. Commercial name                          : Dolby Digital Plus
  42. Codec ID                                 : A_EAC3
  43. Duration                                 : 2 h 10 min
  44. Bit rate mode                            : Constant
  45. Bit rate                                 : 224 kb/s
  46. Channel(s)                               : 2 channels
  47. Channel layout                           : L R
  48. Sampling rate                            : 48.0 kHz
  49. Frame rate                               : 31.250 FPS (1536 SPF)
  50. Compression mode                         : Lossy
  51. Delay relative to video                  : -600 ms
  52. Stream size                              : 210 MiB (3%)
  53. Title                                    : Hindi
  54. Language                                 : Hindi
  55. Service kind                             : Complete Main
  56. Default                                  : Yes
  57. Forced                                   : No
  58.  
  59. Audio #2
  60. ID                                       : 3
  61. Format                                   : DTS XLL
  62. Format/Info                              : Digital Theater Systems
  63. Commercial name                          : DTS-HD Master Audio
  64. Codec ID                                 : A_DTS
  65. Duration                                 : 2 h 10 min
  66. Bit rate mode                            : Variable
  67. Bit rate                                 : 4 336 kb/s
  68. Channel(s)                               : 8 channels
  69. Channel layout                           : C L R LFE Lb Rb Lss Rss
  70. Sampling rate                            : 48.0 kHz
  71. Frame rate                               : 93.750 FPS (512 SPF)
  72. Bit depth                                : 24 bits
  73. Compression mode                         : Lossless
  74. Delay relative to video                  : -1 s 54 ms
  75. Stream size                              : 3.97 GiB (50%)
  76. Title                                    : English
  77. Language                                 : English
  78. Default                                  : No
  79. Forced                                   : No
  80.  
  81. Text
  82. ID                                       : 4
  83. Format                                   : PGS
  84. Codec ID                                 : S_HDMV/PGS
  85. Codec ID/Info                            : Picture based subtitle format used on BDs/HD-DVDs
  86. Duration                                 : 2 h 2 min
  87. Bit rate                                 : 33.3 kb/s
  88. Frame rate                               : 0.362 FPS
  89. Count of elements                        : 2658
  90. Stream size                              : 29.2 MiB (0%)
  91. Title                                    : English [PGS]
  92. Language                                 : English
  93. Default                                  : Yes
  94. Forced                                   : No
  95.  
  96. Menu
  97. 00:00:01.654                             : :Introduction
  98. 00:00:14.654                             : :Start
  99. 00:06:39.355                             : :Focus
  100. 00:09:06.488                             : :First Action Hero
  101. 00:11:20.289                             : :Wyle E. Coyote
  102. 00:13:03.090                             : :Tough Guys and Handcuffs
  103. 00:14:48.424                             : :Precinct Reality
  104. 00:15:49.958                             : :A Preview, a Passport and a Warning
  105. 00:18:43.258                             : :Jack Slater IV
  106. 00:19:39.825                             : :An Eye for Evil
  107. 00:21:36.693                             : :Sicilian Funeral Arrangements
  108. 00:22:26.860                             : :Frank's Farewell and Tony's Hello
  109. 00:25:03.461                             : :Bonneville, Desert Eagle, and a Dynamite Drive-By
  110. 00:26:38.961                             : :"Close Your Eyes, Stay Flat, and Don't Move"
  111. 00:28:00.128                             : :No Hand, New Tunes
  112. 00:30:43.495                             : :Playing Chicken
  113. 00:32:11.096                             : :LAPD...Movie-Style
  114. 00:32:51.463                             : :The Guy Who Killed Mozart
  115. 00:34:28.496                             : :Cartoon Cats and Dearest Friends
  116. 00:37:11.863                             : :Perfect Buddy-Movie Potential
  117. 00:38:39.297                             : :10 Minutes to Prove It
  118. 00:40:45.631                             : :Decoder-Ring Magic
  119. 00:42:15.365                             : :The Tinman and the Henchman
  120. 00:44:53.966                             : :Bull's-Eye
  121. 00:45:43.800                             : :A Stretch and a Kiss
  122. 00:47:02.300                             : :Money to Burn and a Newsstand Memory
  123. 00:49:38.834                             : :The Virtue of Silence
  124. 00:52:00.867                             : :The $2000 Payoff and a Red-Smoke Warning
  125. 00:53:08.701                             : :Like Daddy, Like Daughter
  126. 00:54:03.302                             : :Skeezy at the Door and Slater Through the Roof
  127. 00:56:47.469                             : :Chicken on a Bike
  128. 00:59:55.936                             : :An Evening with the Slater Family
  129. 01:01:49.904                             : :Shattered Glass, Smoking Ears and a Funeral Invite
  130. 01:03:26.772                             : :Where Heroes Dare to Dwell
  131. 01:05:59.772                             : :"Leo the Fart Is Gonna Pass Gas One More Time"
  132. 01:07:14.272                             : :Paying Respects and the Classic Movie Mistake
  133. 01:10:49.839                             : :Slater in Front of the Eight-Ball
  134. 01:12:05.740                             : :A Crane, a Wrecking Ball, and a Ticking Corpse
  135. 01:15:35.608                             : :Elevating Firepower
  136. 01:18:23.542                             : :The Pits
  137. 01:20:29.575                             : :360S, 180S and Parallel Worlds
  138. 01:24:23.042                             : :New York City
  139. 01:28:24.442                             : :Worse Things Than Movies
  140. 01:32:22.776                             : :Benedict Tests a Theory
  141. 01:34:48.343                             : :Mozart Lives
  142. 01:38:05.077                             : :Taking Slater Out of the Picture
  143. 01:42:37.411                             : :The Ripper Goes to the Premiere
  144. 01:45:34.745                             : :Seeing Double
  145. 01:47:22.179                             : :On the Roof, Over the Edge and 2000 Volts
  146. 01:51:29.212                             : :A World Where the Bad Guys Can Win
  147. 01:54:36.712                             : :"We Gotta Get Him Back to the Movies"
  148. 01:58:55.979                             : :Movie Magic
  149. 01:59:48.646                             : :Not Even a Flesh Wound
  150. 02:02:09.080                             : :A Hero, a Script and the Comic Relief
  151. 02:03:43.447                             : :End Credits