The text below is selected, press Ctrl+C to copy to your clipboard. (⌘+C on Mac) No line numbers will be copied.
MediaInfo

30th May 2019 10:54:00 PM | Views: 670
  1. Format                      : Matroska
  2. Format version              : Version 4
  3. File size                   : 2.30 GiB
  4. Duration                    : 1 h 49 min
  5. Overall bit rate            : 3 011 kb/s
  6. Movie name                  : Captive.State.2019.1080p.BluRay.10bit.HEVC.6CH-MkvCage.ws
  7. Encoded date                : UTC 2019-05-30 22:41:29
  8. Writing application         : mkvmerge v32.0.0 ('Astral Progressions') 64-bit
  9. Writing library             : libebml v1.3.7 + libmatroska v1.5.0
  10. Cover                       : Yes
  11. Attachments                 : cover.jpg
  12.  
  13. Video
  14. ID                          : 1
  15. Format                      : HEVC
  16. Format/Info                 : High Efficiency Video Coding
  17. Format profile              : Main [email protected]@Main
  18. Codec ID                    : V_MPEGH/ISO/HEVC
  19. Duration                    : 1 h 49 min
  20. Bit rate                    : 2 753 kb/s
  21. Width                       : 1 920 pixels
  22. Height                      : 804 pixels
  23. Display aspect ratio        : 2.40:1
  24. Frame rate mode             : Constant
  25. Frame rate                  : 23.976 (24000/1001) FPS
  26. Color space                 : YUV
  27. Chroma subsampling          : 4:2:0
  28. Bit depth                   : 10 bits
  29. Bits/(Pixel*Frame)          : 0.074
  30. Stream size                 : 2.11 GiB (91%)
  31. Default                     : Yes
  32. Forced                      : No
  33.  
  34. Audio
  35. ID                          : 2
  36. Format                      : AAC LC SBR
  37. Format/Info                 : Advanced Audio Codec Low Complexity with Spectral Band Replication
  38. Commercial name             : HE-AAC
  39. Format settings             : Explicit
  40. Codec ID                    : A_AAC-2
  41. Duration                    : 1 h 49 min
  42. Bit rate                    : 256 kb/s
  43. Channel(s)                  : 6 channels
  44. Channel layout              : C L R Ls Rs LFE
  45. Sampling rate               : 48.0 kHz
  46. Frame rate                  : 23.438 FPS (2048 SPF)
  47. Compression mode            : Lossy
  48. Delay relative to video     : 43 ms
  49. Stream size                 : 201 MiB (9%)
  50. Language                    : English
  51. Default                     : Yes
  52. Forced                      : No
  53.  
  54. Text #1
  55. ID                          : 3
  56. Format                      : UTF-8
  57. Codec ID                    : S_TEXT/UTF8
  58. Codec ID/Info               : UTF-8 Plain Text
  59. Duration                    : 1 h 45 min
  60. Bit rate                    : 46 b/s
  61. Count of elements           : 1122
  62. Stream size                 : 35.6 KiB (0%)
  63. Title                       : HI
  64. Language                    : English
  65. Default                     : Yes
  66. Forced                      : No
  67.  
  68. Text #2
  69. ID                          : 4
  70. Format                      : UTF-8
  71. Codec ID                    : S_TEXT/UTF8
  72. Codec ID/Info               : UTF-8 Plain Text
  73. Duration                    : 1 h 44 min
  74. Bit rate                    : 37 b/s
  75. Count of elements           : 829
  76. Stream size                 : 28.5 KiB (0%)
  77. Language                    : English
  78. Default                     : No
  79. Forced                      : No
  80.  
  81. Menu
  82. 00:00:00.000                : en:Chapter 1
  83. 00:06:25.385                : en:Chapter 2
  84. 00:12:34.670                : en:Chapter 3
  85. 00:18:45.999                : en:Chapter 4
  86. 00:24:21.376                : en:Chapter 5
  87. 00:26:55.113                : en:Chapter 6
  88. 00:32:44.504                : en:Chapter 7
  89. 00:38:27.596                : en:Chapter 8
  90. 00:43:36.947                : en:Chapter 9
  91. 00:47:17.626                : en:Chapter 10
  92. 00:52:14.464                : en:Chapter 11
  93. 01:00:01.598                : en:Chapter 12
  94. 01:06:42.373                : en:Chapter 13
  95. 01:11:29.576                : en:Chapter 14
  96. 01:15:18.222                : en:Chapter 15
  97. 01:19:40.859                : en:Chapter 16
  98. 01:23:32.048                : en:Chapter 17
  99. 01:31:46.542                : en:Chapter 18
  100. 01:38:12.011                : en:Chapter 19
  101. 01:45:00.711                : en:Chapter 20