The text below is selected, press Ctrl+C to copy to your clipboard. (⌘+C on Mac) No line numbers will be copied.
The Shaukeens (2014) 720p

4th January 2022 07:00:56 AM | Views: 17
  1. Format                                   : Matroska
  2. Format version                           : Version 4
  3. File size                                : 1.11 GiB
  4. Duration                                 : 2 h 2 min
  5. Overall bit rate                         : 1 291 kb/s
  6. Movie name                               : The Shaukeens (2014) 720p WEB-DL x264 Hindi DD2.0 ESub 1.10GB [www.MoviezAddiction.art]
  7. Encoded date                             : UTC 2022-01-03 12:57:33
  8. Writing application                      : mkvmerge v47.0.0 ('Black Flag') 64-bit
  9. Writing library                          : libebml v1.3.10 + libmatroska v1.5.2
  10.  
  11. Video
  12. ID                                       : 1
  13. Format                                   : AVC
  14. Format/Info                              : Advanced Video Codec
  15. Format profile                           : [email protected]
  16. Format settings                          : CABAC / 4 Ref Frames
  17. Format settings, CABAC                   : Yes
  18. Format settings, Reference frames        : 4 frames
  19. Codec ID                                 : V_MPEG4/ISO/AVC
  20. Duration                                 : 2 h 2 min
  21. Bit rate                                 : 1 099 kb/s
  22. Width                                    : 1 280 pixels
  23. Height                                   : 546 pixels
  24. Display aspect ratio                     : 2.35:1
  25. Original display aspect ratio            : 2.35:1
  26. Frame rate mode                          : Constant
  27. Frame rate                               : 25.000 FPS
  28. Color space                              : YUV
  29. Chroma subsampling                       : 4:2:0
  30. Bit depth                                : 8 bits
  31. Scan type                                : Progressive
  32. Bits/(Pixel*Frame)                       : 0.063
  33. Stream size                              : 964 MiB (85%)
  34. Title                                    : [www.MoviezAddiction.art]
  35. Default                                  : Yes
  36. Forced                                   : No
  37.  
  38. Audio
  39. ID                                       : 2
  40. Format                                   : AAC LC
  41. Format/Info                              : Advanced Audio Codec Low Complexity
  42. Codec ID                                 : A_AAC-2
  43. Duration                                 : 2 h 2 min
  44. Bit rate                                 : 192 kb/s
  45. Channel(s)                               : 2 channels
  46. Channel layout                           : L R
  47. Sampling rate                            : 48.0 kHz
  48. Frame rate                               : 46.875 FPS (1024 SPF)
  49. Compression mode                         : Lossy
  50. Delay relative to video                  : -33 ms
  51. Stream size                              : 166 MiB (15%)
  52. Title                                    : [www.MoviezAddiction.art] - Hindi
  53. Language                                 : Hindi
  54. Default                                  : Yes
  55. Forced                                   : No
  56.  
  57. Text
  58. ID                                       : 3
  59. Format                                   : S_TEXT/WEBVTT
  60. Codec ID                                 : S_TEXT/WEBVTT
  61. Duration                                 : 2 h 0 min
  62. Bit rate                                 : 132 b/s
  63. Count of elements                        : 2388
  64. Stream size                              : 117 KiB (0%)
  65. Title                                    : [www.MoviezAddiction.art] - English [WebVTT]
  66. Language                                 : English
  67. Default                                  : Yes
  68. Forced                                   : No