The text below is selected, press Ctrl+C to copy to your clipboard. (⌘+C on Mac) No line numbers will be copied.
MoviezAddiction.Casa | Indiana Jones and...

10th June 2021 08:20:13 AM | Views: 23
  1. General
  2. Unique ID                                : 257267644024513400038541272499719023092 (0xC18BF228C9BF43A545AD71FB9448A9F4)
  3. Complete name                            : F:\MoviezAddiction.Casa | Indiana Jones and the Temple of Doom (1984) 1080p 10Bit UHD BluRay x265 HEVC EAC3 ESub Dual Audio [Hindi DD+ 5.1CH + English] 4.00GB
  4. Format                                   : Matroska
  5. Format version                           : Version 4
  6. File size                                : 4.01 GiB
  7. Duration                                 : 1 h 58 min
  8. Overall bit rate                         : 4 842 kb/s
  9. Movie name                               : MoviezAddiction.Casa | Indiana Jones and the Temple of Doom (1984) 1080p 10Bit UHD BluRay x265 HEVC EAC3 ESub Dual Audio [Hindi DD+ 5.1CH + English] 4.00GB
  10. Encoded date                             : UTC 2021-06-10 05:57:34
  11. Writing application                      : mkvmerge v47.0.0 ('Black Flag') 64-bit
  12. Writing library                          : libebml v1.3.10 + libmatroska v1.5.2
  13.  
  14. Video
  15. ID                                       : 4
  16. Format                                   : HEVC
  17. Format/Info                              : High Efficiency Video Coding
  18. Format profile                           : Main [email protected]@Main
  19. Codec ID                                 : V_MPEGH/ISO/HEVC
  20. Duration                                 : 1 h 58 min
  21. Bit rate                                 : 3 803 kb/s
  22. Width                                    : 1 920 pixels
  23. Height                                   : 800 pixels
  24. Display aspect ratio                     : 2.40:1
  25. Frame rate mode                          : Constant
  26. Frame rate                               : 23.976 (24000/1001) FPS
  27. Color space                              : YUV
  28. Chroma subsampling                       : 4:2:0
  29. Bit depth                                : 10 bits
  30. Bits/(Pixel*Frame)                       : 0.103
  31. Stream size                              : 3.15 GiB (78%)
  32. Title                                    : MoviezAddiction.Casa
  33. Writing library                          : x265 3.2+9-971180b100f8:[Windows][GCC 9.2.0][64 bit] 10bit
  34. Encoding settings                        : cpuid=1111039 / frame-threads=3 / numa-pools=12 / wpp / no-pmode / no-pme / no-psnr / ssim / log-level=2 / input-csp=1 / input-res=1920x800 / interlace=0 / total-frames=170428 / level-idc=0 / high-tier=1 / uhd-bd=0 / ref=4 / no-allow-non-conformance / no-repeat-headers / annexb / no-aud / no-hrd / info / hash=0 / no-temporal-layers / open-gop / min-keyint=23 / keyint=250 / gop-lookahead=0 / bframes=8 / b-adapt=2 / b-pyramid / bframe-bias=40 / rc-lookahead=80 / lookahead-slices=4 / scenecut=40 / radl=0 / no-splice / no-intra-refresh / ctu=64 / min-cu-size=8 / rect / no-amp / max-tu-size=32 / tu-inter-depth=1 / tu-intra-depth=1 / limit-tu=0 / rdoq-level=2 / dynamic-rd=0.00 / ssim-rd / signhide / no-tskip / nr-intra=0 / nr-inter=0 / constrained-intra / strong-intra-smoothing / max-merge=5 / limit-refs=3 / limit-modes / me=3 / subme=7 / merange=57 / temporal-mvp / no-frame-dup / no-hme / weightp / no-weightb / no-analyze-src-pics / deblock=-3:-3 / sao / no-sao-non-deblock / rd=4 / selective-sao=4 / early-skip / rskip / no-fast-intra / no-tskip-fast / no-cu-lossless / no-b-intra / no-splitrd-skip / rdpenalty=0 / psy-rd=3.50 / psy-rdoq=2.50 / no-rd-refine / no-lossless / cbqpoffs=0 / crqpoffs=0 / rc=crf / crf=22.0 / qcomp=0.60 / qpstep=4 / stats-write=0 / stats-read=0 / ipratio=1.40 / pbratio=1.30 / aq-mode=3 / aq-strength=0.40 / cutree / zone-count=0 / no-strict-cbr / qg-size=32 / no-rc-grain / qpmax=69 / qpmin=0 / no-const-vbv / sar=0 / overscan=0 / videoformat=5 / range=0 / colorprim=2 / transfer=2 / colormatrix=2 / chromaloc=0 / display-window=0 / cll=0,0 / min-luma=0 / max-luma=1023 / log2-max-poc-lsb=8 / vui-timing-info / vui-hrd-info / slices=1 / no-opt-qp-pps / no-opt-ref-list-length-pps / no-multi-pass-opt-rps / scenecut-bias=0.05 / no-opt-cu-delta-qp / no-aq-motion / no-hdr / no-hdr-opt / no-dhdr10-opt / no-idr-recovery-sei / analysis-reuse-level=5 / scale-factor=0 / refine-intra=0 / refine-inter=0 / refine-mv=1 / refine-ctu-distortion=0 / no-limit-sao / ctu-info=0 / no-lowpass-dct / refine-analysis-type=0 / copy-pic=1 / max-ausize-factor=1.0 / no-dynamic-refine / no-single-sei / no-hevc-aq / no-svt / no-field / qp-adaptation-range=1.00
  35. Language                                 : English
  36. Default                                  : Yes
  37. Forced                                   : Yes
  38.  
  39. Audio #1
  40. ID                                       : 1
  41. Format                                   : E-AC-3
  42. Format/Info                              : Enhanced AC-3
  43. Commercial name                          : Dolby Digital Plus
  44. Codec ID                                 : A_EAC3
  45. Duration                                 : 1 h 58 min
  46. Bit rate mode                            : Constant
  47. Bit rate                                 : 640 kb/s
  48. Channel(s)                               : 6 channels
  49. Channel layout                           : L R C LFE Ls Rs
  50. Sampling rate                            : 48.0 kHz
  51. Frame rate                               : 31.250 FPS (1536 SPF)
  52. Compression mode                         : Lossy
  53. Delay relative to video                  : 23 ms
  54. Stream size                              : 543 MiB (13%)
  55. Title                                    : MoviezAddiction.Casa
  56. Language                                 : Hindi
  57. Service kind                             : Complete Main
  58. Default                                  : Yes
  59. Forced                                   : Yes
  60.  
  61. Audio #2
  62. ID                                       : 5
  63. Format                                   : AAC LC
  64. Format/Info                              : Advanced Audio Codec Low Complexity
  65. Codec ID                                 : A_AAC-2
  66. Duration                                 : 1 h 58 min
  67. Bit rate                                 : 399 kb/s
  68. Channel(s)                               : 6 channels
  69. Channel layout                           : C L R Ls Rs LFE
  70. Sampling rate                            : 48.0 kHz
  71. Frame rate                               : 46.875 FPS (1024 SPF)
  72. Compression mode                         : Lossy
  73. Delay relative to video                  : 9 ms
  74. Stream size                              : 338 MiB (8%)
  75. Title                                    : MoviezAddiction.Casa
  76. Language                                 : English
  77. Default                                  : No
  78. Forced                                   : Yes
  79.  
  80. Text #1
  81. ID                                       : 2
  82. Format                                   : UTF-8
  83. Codec ID                                 : S_TEXT/UTF8
  84. Codec ID/Info                            : UTF-8 Plain Text
  85. Duration                                 : 1 h 52 min
  86. Bit rate                                 : 23 b/s
  87. Count of elements                        : 689
  88. Stream size                              : 19.6 KiB (0%)
  89. Title                                    : MoviezAddiction.Casa
  90. Language                                 : English
  91. Default                                  : Yes
  92. Forced                                   : Yes
  93.  
  94. Text #2
  95. ID                                       : 3
  96. Format                                   : PGS
  97. Muxing mode                              : zlib
  98. Codec ID                                 : S_HDMV/PGS
  99. Codec ID/Info                            : Picture based subtitle format used on BDs/HD-DVDs
  100. Duration                                 : 1 h 52 min
  101. Bit rate                                 : 10.8 kb/s
  102. Count of elements                        : 1246
  103. Stream size                              : 8.64 MiB (0%)
  104. Title                                    : MoviezAddiction.Casa
  105. Language                                 : Hindi
  106. Default                                  : No
  107. Forced                                   : Yes