The text below is selected, press Ctrl+C to copy to your clipboard. (⌘+C on Mac) No line numbers will be copied.
Thor (2011) 1080p BluRay x264...

30th January 2023 04:40:53 PM | Views: 13
  1. Format                                   : Matroska
  2. Format version                           : Version 4
  3. File size                                : 7.71 GiB
  4. Duration                                 : 1 h 55 min
  5. Overall bit rate mode                    : Variable
  6. Overall bit rate                         : 9 530 kb/s
  7. Movie name                               : Thor (2011) 1080p BluRay x264 Dual Audio [Hindi DDP5.1 + English DTS-HD MA 7.1] ESub 7.70GB [MoviezAddiction]
  8. Encoded date                             : UTC 2023-01-30 15:31:08
  9. Writing application                      : mkvmerge v72.0.0 ('Minuano (Six-eight)') 64-bit
  10. Writing library                          : libebml v1.4.4 + libmatroska v1.7.1
  11.  
  12. Video
  13. ID                                       : 1
  14. Format                                   : AVC
  15. Format/Info                              : Advanced Video Codec
  16. Format profile                           : [email protected]
  17. Format settings                          : CABAC / 5 Ref Frames
  18. Format settings, CABAC                   : Yes
  19. Format settings, Reference frames        : 5 frames
  20. Codec ID                                 : V_MPEG4/ISO/AVC
  21. Duration                                 : 1 h 54 min
  22. Bit rate                                 : 4 000 kb/s
  23. Width                                    : 1 920 pixels
  24. Height                                   : 816 pixels
  25. Display aspect ratio                     : 2.35:1
  26. Frame rate mode                          : Variable
  27. Frame rate                               : 23.976 (24000/1001) FPS
  28. Color space                              : YUV
  29. Chroma subsampling                       : 4:2:0
  30. Bit depth                                : 8 bits
  31. Scan type                                : Progressive
  32. Bits/(Pixel*Frame)                       : 0.106
  33. Stream size                              : 3.21 GiB (42%)
  34. Default                                  : Yes
  35. Forced                                   : No
  36.  
  37. Audio #1
  38. ID                                       : 2
  39. Format                                   : E-AC-3
  40. Format/Info                              : Enhanced AC-3
  41. Commercial name                          : Dolby Digital Plus
  42. Codec ID                                 : A_EAC3
  43. Duration                                 : 1 h 55 min
  44. Bit rate mode                            : Constant
  45. Bit rate                                 : 640 kb/s
  46. Channel(s)                               : 6 channels
  47. Channel layout                           : L R C LFE Ls Rs
  48. Sampling rate                            : 48.0 kHz
  49. Frame rate                               : 31.250 FPS (1536 SPF)
  50. Compression mode                         : Lossy
  51. Delay relative to video                  : 1 s 790 ms
  52. Stream size                              : 530 MiB (7%)
  53. Title                                    : Hindi
  54. Language                                 : Hindi
  55. Service kind                             : Complete Main
  56. Default                                  : Yes
  57. Forced                                   : No
  58.  
  59. Audio #2
  60. ID                                       : 3
  61. Format                                   : DTS ES XLL
  62. Format/Info                              : Digital Theater Systems
  63. Commercial name                          : DTS-HD Master Audio
  64. Codec ID                                 : A_DTS
  65. Duration                                 : 1 h 54 min
  66. Bit rate mode                            : Variable
  67. Bit rate                                 : 4 928 kb/s
  68. Channel(s)                               : 8 channels
  69. Channel layout                           : C L R Ls Rs LFE Lb Rb
  70. Sampling rate                            : 48.0 kHz
  71. Frame rate                               : 93.750 FPS (512 SPF)
  72. Bit depth                                : 24 bits
  73. Compression mode                         : Lossless
  74. Stream size                              : 3.95 GiB (51%)
  75. Title                                    : English
  76. Language                                 : English
  77. Default                                  : No
  78. Forced                                   : No
  79.  
  80. Text
  81. ID                                       : 4
  82. Format                                   : PGS
  83. Codec ID                                 : S_HDMV/PGS
  84. Codec ID/Info                            : Picture based subtitle format used on BDs/HD-DVDs
  85. Duration                                 : 1 h 53 min
  86. Bit rate                                 : 32.3 kb/s
  87. Frame rate                               : 0.354 FPS
  88. Count of elements                        : 2416
  89. Stream size                              : 26.3 MiB (0%)
  90. Title                                    : English [PGS]
  91. Language                                 : English
  92. Default                                  : Yes
  93. Forced                                   : No
  94.  
  95. Menu
  96. 00:00:00.000                             : en:Chapter 01
  97. 00:10:37.637                             : en:Chapter 02
  98. 00:17:32.635                             : en:Chapter 03
  99. 00:26:02.102                             : en:Chapter 04
  100. 00:32:27.696                             : en:Chapter 05
  101. 00:37:27.912                             : en:Chapter 06
  102. 00:42:13.698                             : en:Chapter 07
  103. 00:52:09.877                             : en:Chapter 08
  104. 01:01:24.472                             : en:Chapter 09
  105. 01:08:45.038                             : en:Chapter 10
  106. 01:15:38.659                             : en:Chapter 11
  107. 01:21:18.749                             : en:Chapter 12
  108. 01:30:34.846                             : en:Chapter 13
  109. 01:40:57.677                             : en:Chapter 14
  110. 01:45:13.224                             : en:Chapter 15
  111. 01:53:05.696                             : en:Chapter 16