The text below is selected, press Ctrl+C to copy to your clipboard. (⌘+C on Mac) No line numbers will be copied.
MediaInfo

14th June 2019 08:10:51 AM | Views: 175
  1. Format                      : Matroska
  2. Format version              : Version 4
  3. File size                   : 854 MiB
  4. Duration                    : 1 h 37 min
  5. Overall bit rate            : 1 222 kb/s
  6. Movie name                  : Murder.Mystery.2019.720p.NF.WEB-DL.x264-MkvCage.ws
  7. Encoded date                : UTC 2019-06-14 08:08:32
  8. Writing application         : mkvmerge v32.0.0 ('Astral Progressions') 64-bit
  9. Writing library             : libebml v1.3.7 + libmatroska v1.5.0
  10.  
  11. Video
  12. ID                          : 1
  13. Format                      : AVC
  14. Format/Info                 : Advanced Video Codec
  15. Format profile              : [email protected]
  16. Format settings             : CABAC / 5 Ref Frames
  17. Format settings, CABAC      : Yes
  18. Format settings, ReFrames   : 5 frames
  19. Codec ID                    : V_MPEG4/ISO/AVC
  20. Duration                    : 1 h 37 min
  21. Bit rate                    : 1 151 kb/s
  22. Width                       : 1 280 pixels
  23. Height                      : 640 pixels
  24. Display aspect ratio        : 2.000
  25. Frame rate mode             : Constant
  26. Frame rate                  : 24.000 FPS
  27. Color space                 : YUV
  28. Chroma subsampling          : 4:2:0
  29. Bit depth                   : 8 bits
  30. Scan type                   : Progressive
  31. Bits/(Pixel*Frame)          : 0.059
  32. Stream size                 : 804 MiB (94%)
  33. Writing library             : x264 core 157 r2935 545de2f
  34. Encoding settings           : cabac=1 / ref=5 / deblock=1:-1:-1 / analyse=0x3:0x133 / me=umh / subme=9 / psy=1 / psy_rd=1.00:0.10 / mixed_ref=1 / me_range=24 / chroma_me=1 / trellis=2 / 8x8dct=1 / cqm=0 / deadzone=21,11 / fast_pskip=1 / chroma_qp_offset=-3 / threads=20 / lookahead_threads=1 / sliced_threads=0 / nr=0 / decimate=1 / interlaced=0 / bluray_compat=0 / constrained_intra=0 / bframes=3 / b_pyramid=2 / b_adapt=2 / b_bias=0 / direct=3 / weightb=1 / open_gop=0 / weightp=2 / keyint=250 / keyint_min=23 / scenecut=40 / intra_refresh=0 / rc_lookahead=60 / rc=2pass / mbtree=1 / bitrate=1151 / ratetol=1.0 / qcomp=0.60 / qpmin=0 / qpmax=69 / qpstep=4 / cplxblur=20.0 / qblur=0.5 / ip_ratio=1.40 / aq=1:1.00
  35. Default                     : Yes
  36. Forced                      : No
  37.  
  38. Audio
  39. ID                          : 2
  40. Format                      : AAC LC SBR
  41. Format/Info                 : Advanced Audio Codec Low Complexity with Spectral Band Replication
  42. Commercial name             : HE-AAC
  43. Format settings             : Explicit
  44. Codec ID                    : A_AAC-2
  45. Duration                    : 1 h 37 min
  46. Bit rate                    : 64.0 kb/s
  47. Channel(s)                  : 2 channels
  48. Channel layout              : L R
  49. Sampling rate               : 48.0 kHz
  50. Frame rate                  : 23.438 FPS (2048 SPF)
  51. Compression mode            : Lossy
  52. Delay relative to video     : 43 ms
  53. Stream size                 : 44.8 MiB (5%)
  54. Title                       : English
  55. Language                    : English
  56. Default                     : Yes
  57. Forced                      : No
  58.  
  59. Text #1
  60. ID                          : 3
  61. Format                      : UTF-8
  62. Codec ID                    : S_TEXT/UTF8
  63. Codec ID/Info               : UTF-8 Plain Text
  64. Duration                    : 1 h 28 min
  65. Bit rate                    : 106 b/s
  66. Count of elements           : 2036
  67. Stream size                 : 69.3 KiB (0%)
  68. Title                       : English [SDH]
  69. Language                    : English
  70. Default                     : Yes
  71. Forced                      : No
  72.  
  73. Text #2
  74. ID                          : 4
  75. Format                      : UTF-8
  76. Codec ID                    : S_TEXT/UTF8
  77. Codec ID/Info               : UTF-8 Plain Text
  78. Duration                    : 1 h 36 min
  79. Bit rate                    : 74 b/s
  80. Count of elements           : 1688
  81. Stream size                 : 52.6 KiB (0%)
  82. Title                       : Castilian
  83. Language                    : Spanish
  84. Default                     : No
  85. Forced                      : No
  86.  
  87. Text #3
  88. ID                          : 5
  89. Format                      : UTF-8
  90. Codec ID                    : S_TEXT/UTF8
  91. Codec ID/Info               : UTF-8 Plain Text
  92. Duration                    : 1 h 36 min
  93. Bit rate                    : 76 b/s
  94. Count of elements           : 1689
  95. Stream size                 : 54.1 KiB (0%)
  96. Title                       : Spanish
  97. Language                    : Spanish
  98. Default                     : No
  99. Forced                      : No
  100.  
  101. Text #4
  102. ID                          : 6
  103. Format                      : UTF-8
  104. Codec ID                    : S_TEXT/UTF8
  105. Codec ID/Info               : UTF-8 Plain Text
  106. Duration                    : 1 h 36 min
  107. Bit rate                    : 83 b/s
  108. Count of elements           : 1711
  109. Stream size                 : 59.1 KiB (0%)
  110. Title                       : French
  111. Language                    : French
  112. Default                     : No
  113. Forced                      : No
  114.  
  115. Text #5
  116. ID                          : 7
  117. Format                      : UTF-8
  118. Codec ID                    : S_TEXT/UTF8
  119. Codec ID/Info               : UTF-8 Plain Text
  120. Duration                    : 1 h 36 min
  121. Bit rate                    : 78 b/s
  122. Count of elements           : 1659
  123. Stream size                 : 55.4 KiB (0%)
  124. Title                       : German
  125. Language                    : German
  126. Default                     : No
  127. Forced                      : No
  128.  
  129. Text #6
  130. ID                          : 8
  131. Format                      : UTF-8
  132. Codec ID                    : S_TEXT/UTF8
  133. Codec ID/Info               : UTF-8 Plain Text
  134. Duration                    : 1 h 36 min
  135. Bit rate                    : 80 b/s
  136. Count of elements           : 1650
  137. Stream size                 : 56.8 KiB (0%)
  138. Title                       : Italian
  139. Language                    : Italian
  140. Default                     : No
  141. Forced                      : No
  142.  
  143. Text #7
  144. ID                          : 9
  145. Format                      : UTF-8
  146. Codec ID                    : S_TEXT/UTF8
  147. Codec ID/Info               : UTF-8 Plain Text
  148. Duration                    : 1 h 36 min
  149. Bit rate                    : 79 b/s
  150. Count of elements           : 1686
  151. Stream size                 : 56.2 KiB (0%)
  152. Title                       : Portuguese
  153. Language                    : Portuguese
  154. Default                     : No
  155. Forced                      : No
  156.  
  157. Text #8
  158. ID                          : 10
  159. Format                      : UTF-8
  160. Codec ID                    : S_TEXT/UTF8
  161. Codec ID/Info               : UTF-8 Plain Text
  162. Duration                    : 1 h 36 min
  163. Bit rate                    : 76 b/s
  164. Count of elements           : 1748
  165. Stream size                 : 53.9 KiB (0%)
  166. Title                       : Brazilian Portuguese
  167. Language                    : Portuguese
  168. Default                     : No
  169. Forced                      : No
  170.  
  171. Text #9
  172. ID                          : 11
  173. Format                      : UTF-8
  174. Codec ID                    : S_TEXT/UTF8
  175. Codec ID/Info               : UTF-8 Plain Text
  176. Duration                    : 1 h 36 min
  177. Bit rate                    : 73 b/s
  178. Count of elements           : 1597
  179. Stream size                 : 52.1 KiB (0%)
  180. Title                       : Polish
  181. Language                    : Polish
  182. Default                     : No
  183. Forced                      : No
  184.  
  185. Text #10
  186. ID                          : 12
  187. Format                      : UTF-8
  188. Codec ID                    : S_TEXT/UTF8
  189. Codec ID/Info               : UTF-8 Plain Text
  190. Duration                    : 1 h 36 min
  191. Bit rate                    : 81 b/s
  192. Count of elements           : 1740
  193. Stream size                 : 57.7 KiB (0%)
  194. Title                       : Turkish
  195. Language                    : Turkish
  196. Default                     : No
  197. Forced                      : No
  198.  
  199. Text #11
  200. ID                          : 13
  201. Format                      : UTF-8
  202. Codec ID                    : S_TEXT/UTF8
  203. Codec ID/Info               : UTF-8 Plain Text
  204. Duration                    : 1 h 36 min
  205. Bit rate                    : 74 b/s
  206. Count of elements           : 1402
  207. Stream size                 : 52.8 KiB (0%)
  208. Title                       : Swedish
  209. Language                    : Swedish
  210. Default                     : No
  211. Forced                      : No
  212.  
  213. Text #12
  214. ID                          : 14
  215. Format                      : UTF-8
  216. Codec ID                    : S_TEXT/UTF8
  217. Codec ID/Info               : UTF-8 Plain Text
  218. Duration                    : 1 h 36 min
  219. Bit rate                    : 73 b/s
  220. Count of elements           : 1685
  221. Stream size                 : 51.9 KiB (0%)
  222. Title                       : Danish
  223. Language                    : Danish
  224. Default                     : No
  225. Forced                      : No
  226.  
  227. Text #13
  228. ID                          : 15
  229. Format                      : UTF-8
  230. Codec ID                    : S_TEXT/UTF8
  231. Codec ID/Info               : UTF-8 Plain Text
  232. Duration                    : 1 h 36 min
  233. Bit rate                    : 61 b/s
  234. Count of elements           : 999
  235. Stream size                 : 43.7 KiB (0%)
  236. Title                       : Finnish
  237. Language                    : Finnish
  238. Default                     : No
  239. Forced                      : No
  240.  
  241. Text #14
  242. ID                          : 16
  243. Format                      : UTF-8
  244. Codec ID                    : S_TEXT/UTF8
  245. Codec ID/Info               : UTF-8 Plain Text
  246. Duration                    : 1 h 36 min
  247. Bit rate                    : 70 b/s
  248. Count of elements           : 1340
  249. Stream size                 : 49.5 KiB (0%)
  250. Title                       : Dutch
  251. Language                    : Dutch
  252. Default                     : No
  253. Forced                      : No
  254.  
  255. Text #15
  256. ID                          : 17
  257. Format                      : UTF-8
  258. Codec ID                    : S_TEXT/UTF8
  259. Codec ID/Info               : UTF-8 Plain Text
  260. Duration                    : 1 h 36 min
  261. Bit rate                    : 73 b/s
  262. Count of elements           : 1450
  263. Stream size                 : 51.7 KiB (0%)
  264. Title                       : Norwegian
  265. Language                    : Norwegian
  266. Default                     : No
  267. Forced                      : No
  268.  
  269. Text #16
  270. ID                          : 18
  271. Format                      : UTF-8
  272. Codec ID                    : S_TEXT/UTF8
  273. Codec ID/Info               : UTF-8 Plain Text
  274. Duration                    : 1 h 36 min
  275. Bit rate                    : 118 b/s
  276. Count of elements           : 1674
  277. Stream size                 : 83.9 KiB (0%)
  278. Title                       : Russian
  279. Language                    : Russian
  280. Default                     : No
  281. Forced                      : No
  282.  
  283. Text #17
  284. ID                          : 19
  285. Format                      : UTF-8
  286. Codec ID                    : S_TEXT/UTF8
  287. Codec ID/Info               : UTF-8 Plain Text
  288. Duration                    : 1 h 36 min
  289. Bit rate                    : 87 b/s
  290. Count of elements           : 1777
  291. Stream size                 : 61.7 KiB (0%)
  292. Title                       : Hungarian
  293. Language                    : Hungarian
  294. Default                     : No
  295. Forced                      : No
  296.  
  297. Text #18
  298. ID                          : 20
  299. Format                      : UTF-8
  300. Codec ID                    : S_TEXT/UTF8
  301. Codec ID/Info               : UTF-8 Plain Text
  302. Duration                    : 1 h 36 min
  303. Bit rate                    : 130 b/s
  304. Count of elements           : 1733
  305. Stream size                 : 91.8 KiB (0%)
  306. Title                       : Greek
  307. Language                    : Greek
  308. Default                     : No
  309. Forced                      : No
  310.  
  311. Text #19
  312. ID                          : 21
  313. Format                      : UTF-8
  314. Codec ID                    : S_TEXT/UTF8
  315. Codec ID/Info               : UTF-8 Plain Text
  316. Duration                    : 1 h 36 min
  317. Bit rate                    : 126 b/s
  318. Count of elements           : 1644
  319. Stream size                 : 88.9 KiB (0%)
  320. Title                       : Hebrew
  321. Language                    : Hebrew
  322. Default                     : No
  323. Forced                      : No
  324.  
  325. Text #20
  326. ID                          : 22
  327. Format                      : UTF-8
  328. Codec ID                    : S_TEXT/UTF8
  329. Codec ID/Info               : UTF-8 Plain Text
  330. Duration                    : 1 h 36 min
  331. Bit rate                    : 150 b/s
  332. Count of elements           : 1784
  333. Stream size                 : 106 KiB (0%)
  334. Title                       : Arabic
  335. Language                    : Arabic
  336. Default                     : No
  337. Forced                      : No
  338.  
  339. Text #21
  340. ID                          : 23
  341. Format                      : UTF-8
  342. Codec ID                    : S_TEXT/UTF8
  343. Codec ID/Info               : UTF-8 Plain Text
  344. Duration                    : 1 h 36 min
  345. Bit rate                    : 95 b/s
  346. Count of elements           : 1708
  347. Stream size                 : 67.5 KiB (0%)
  348. Title                       : Romanian
  349. Language                    : Romanian
  350. Default                     : No
  351. Forced                      : No
  352.  
  353. Text #22
  354. ID                          : 24
  355. Format                      : UTF-8
  356. Codec ID                    : S_TEXT/UTF8
  357. Codec ID/Info               : UTF-8 Plain Text
  358. Duration                    : 1 h 36 min
  359. Bit rate                    : 75 b/s
  360. Count of elements           : 1706
  361. Stream size                 : 53.2 KiB (0%)
  362. Title                       : Czech
  363. Language                    : Czech
  364. Default                     : No
  365. Forced                      : No
  366.  
  367. Text #23
  368. ID                          : 25
  369. Format                      : UTF-8
  370. Codec ID                    : S_TEXT/UTF8
  371. Codec ID/Info               : UTF-8 Plain Text
  372. Duration                    : 1 h 36 min
  373. Bit rate                    : 238 b/s
  374. Count of elements           : 1775
  375. Stream size                 : 168 KiB (0%)
  376. Title                       : Hindi
  377. Language                    : Hindi
  378. Default                     : No
  379. Forced                      : No
  380.  
  381. Text #24
  382. ID                          : 26
  383. Format                      : UTF-8
  384. Codec ID                    : S_TEXT/UTF8
  385. Codec ID/Info               : UTF-8 Plain Text
  386. Duration                    : 1 h 36 min
  387. Bit rate                    : 77 b/s
  388. Count of elements           : 1765
  389. Stream size                 : 54.4 KiB (0%)
  390. Title                       : Indonesian
  391. Language                    : Indonesian
  392. Default                     : No
  393. Forced                      : No
  394.  
  395. Text #25
  396. ID                          : 27
  397. Format                      : UTF-8
  398. Codec ID                    : S_TEXT/UTF8
  399. Codec ID/Info               : UTF-8 Plain Text
  400. Duration                    : 1 h 36 min
  401. Bit rate                    : 114 b/s
  402. Count of elements           : 1776
  403. Stream size                 : 80.4 KiB (0%)
  404. Title                       : Vietnamese
  405. Language                    : Vietnamese
  406. Default                     : No
  407. Forced                      : No
  408.  
  409. Text #26
  410. ID                          : 28
  411. Format                      : UTF-8
  412. Codec ID                    : S_TEXT/UTF8
  413. Codec ID/Info               : UTF-8 Plain Text
  414. Duration                    : 1 h 36 min
  415. Bit rate                    : 232 b/s
  416. Count of elements           : 1779
  417. Stream size                 : 164 KiB (0%)
  418. Title                       : Thai
  419. Language                    : Thai
  420. Default                     : No
  421. Forced                      : No
  422.  
  423. Text #27
  424. ID                          : 29
  425. Format                      : UTF-8
  426. Codec ID                    : S_TEXT/UTF8
  427. Codec ID/Info               : UTF-8 Plain Text
  428. Duration                    : 1 h 36 min
  429. Bit rate                    : 105 b/s
  430. Count of elements           : 1765
  431. Stream size                 : 74.3 KiB (0%)
  432. Title                       : Korean
  433. Language                    : Korean
  434. Default                     : No
  435. Forced                      : No
  436.  
  437. Text #28
  438. ID                          : 30
  439. Format                      : UTF-8
  440. Codec ID                    : S_TEXT/UTF8
  441. Codec ID/Info               : UTF-8 Plain Text
  442. Duration                    : 1 h 36 min
  443. Bit rate                    : 95 b/s
  444. Count of elements           : 1776
  445. Stream size                 : 67.1 KiB (0%)
  446. Title                       : Chinese (Simplified)
  447. Language                    : Chinese
  448. Default                     : No
  449. Forced                      : No
  450.  
  451. Text #29
  452. ID                          : 31
  453. Format                      : UTF-8
  454. Codec ID                    : S_TEXT/UTF8
  455. Codec ID/Info               : UTF-8 Plain Text
  456. Duration                    : 1 h 36 min
  457. Bit rate                    : 83 b/s
  458. Count of elements           : 1774
  459. Stream size                 : 59.1 KiB (0%)
  460. Title                       : Chinese (Traditional)
  461. Language                    : Chinese
  462. Default                     : No
  463. Forced                      : No
  464.  
  465. Text #30
  466. ID                          : 32
  467. Format                      : UTF-8
  468. Codec ID                    : S_TEXT/UTF8
  469. Codec ID/Info               : UTF-8 Plain Text
  470. Duration                    : 1 h 27 min
  471. Bit rate                    : 90 b/s
  472. Count of elements           : 1866
  473. Stream size                 : 57.5 KiB (0%)
  474. Title                       : Japanese
  475. Language                    : Japanese
  476. Default                     : No
  477. Forced                      : No